<?xml version="1.0" standalone="no"?>
<!DOCTYPE svg PUBLIC "-//W3C//DTD SVG 1.1//EN" "http://www.w3.org/Graphics/SVG/1.1/DTD/svg11.dtd" >
<svg xmlns="http://www.w3.org/2000/svg">
<metadata>Generated by IcoMoon</metadata>
<defs>
<font id="icomoon" horiz-adv-x="1024">
<font-face units-per-em="1024" ascent="960" descent="-64" />
<missing-glyph horiz-adv-x="1024" />
<glyph unicode="&#x20;" horiz-adv-x="512" d="" />
<glyph unicode="&#xe900;" glyph-name="arrow-icon" d="M1014.695 470.559l-319.993 319.993-45.437-45.439 265.592-265.274h-914.858v-63.999h914.858l-265.275-265.272 45.12-45.12 319.993 319.992c5.962 5.996 9.305 14.106 9.305 22.559s-3.342 16.564-9.305 22.559z" />
<glyph unicode="&#xe901;" glyph-name="economics-finance-icon" d="M344.364 254.83c16.71-12.632 35.863-24.043 57.463-34.233l15.078-52.164h77.024l5.705 21.6h53.388l5.297-21.192h77.431l20.377 71.317c28.527 29.342 41.975 73.762 34.233 115.739-0.815 3.667-1.63 7.742-2.445 11.411-10.596 38.714-39.123 72.134-78.246 92.102-8.966 4.484-18.746 8.557-28.527 11.411-17.523 5.297-36.271 8.151-55.424 8.151-11.411 0-20.783-9.372-20.783-20.783s9.372-20.785 20.783-20.785c14.671 0 29.342-2.037 43.198-6.52 7.336-2.445 14.671-5.297 21.598-8.966 28.936-14.671 49.72-38.716 57.054-66.020 0.816-2.445 1.224-5.297 1.63-7.742 5.299-29.342-4.074-60.315-24.043-80.285-4.482-4.482-7.742-10.189-8.966-15.486l-12.226-42.383h-14.263l-5.299 21.192-117.369 0.407-5.705-21.598h-14.265l-6.927 24.452c-2.854 10.189-11.004 19.155-19.97 23.23-17.931 8.151-34.233 17.523-48.495 28.119v47.274h6.52l40.345 53.794c7.336 10.189 2.854 20.783 1.224 23.228l-2.039 5.299c-0.814 2.039-1.63 4.075-2.852 6.114 1.222-0.409 2.852-1.224 3.26-1.63 1.63-0.815 8.151-4.484 10.187-6.114 7.336-5.297 13.041-12.632 17.116-20.377 4.89-10.187 17.525-14.263 27.712-9.372 10.189 4.89 14.265 17.523 9.374 27.712-6.927 13.856-16.71 25.673-28.936 35.047-4.075 3.26-15.485 9.781-15.893 9.781-3.667 2.039-7.744 3.669-11.411 4.891-9.781 3.26-19.968 5.297-31.379 5.297-2.039 0-4.484 0-5.705 0-1.224 0-2.446 0-4.076-0.407h-4.89l-2.852-1.631c-6.52-2.444-11.819-7.742-14.265-14.67-3.26-8.559-0.407-15.895 0.815-19.563 0.815-2.445 2.039-4.482 4.075-7.742 2.854-4.89 5.299-10.187 7.744-15.486 0.815-1.63 1.63-2.852 2.037-4.89l-21.191-28.121-26.491-0.407v-91.287c0.815-11.411 6.112-21.598 14.263-27.712zM1023.313-12.102l-13.45 79.468c-4.075 16.71-18.746 28.527-35.863 28.527h-72.541v454.805h115.739v125.113l-503.302 272.23-507.375-272.23v-125.113h116.145v-454.398h-72.947c-17.116 0-31.38-11.817-35.863-29.749l-13.041-77.839c-0.815-2.444-0.815-5.297-0.815-8.151 0-17.931 14.671-32.602 33.010-32.602h958.512c2.446 0 4.891 0.409 7.744 0.816 8.557 2.037 15.486 7.335 19.968 15.078 4.484 7.336 5.706 15.895 4.076 24.045zM47.682 591.859v59.091l466.215 249.817 462.141-249.817v-59.091h-928.357zM859.892 550.698v-454.398h-696.063v454.398h696.063zM42.792-10.471l11.003 65.611h916.13l11.004-65.611h-938.138z" />
<glyph unicode="&#xe902;" glyph-name="engineering" d="M920.58 494.274h-29.228v-29.225h29.228v29.225zM130.528 494.274h-29.227v-29.225h29.227v29.225zM1024 269.189c0 33.418-10.015 66.020-29.727 96.978 0.963 6.246 1.457 12.603 1.457 19.062 0 180.737-94.717 348.040-247.191 436.622-58.455 33.961-121.754 54.571-188.343 61.355-7.391 17.432-24.675 29.694-44.769 29.694h-8.972c-26.796 0-48.598-21.801-48.598-48.598v-344.263h-12.512v-71.937h-39.454c-24.733 0-44.851-20.12-44.851-44.852v-39.451h-71.937v-16.22c-39.512 8.222-74.803 18.577-105.171 30.692 136.913 52.392 229.44 184.407 229.44 333.976 0 43.418-7.653 85.629-22.74 125.727 12.305 3.528 24.831 6.556 37.576 9.026l-5.835 30.097c-201.239-39.019-353.824-204.293-387.245-407.734l-1.36-1.363 0.82-1.978c-4.154-26.366-6.331-53.357-6.331-80.798 0-6.464 0.529-12.813 1.469-19.060-19.711-30.961-29.727-63.565-29.727-96.978 0-78.191 54.501-150.963 153.465-204.911 96.021-52.346 223.358-81.176 358.55-81.176 135.177 0 262.506 28.831 358.524 81.176 98.961 53.95 153.461 126.72 153.461 204.911zM660.845 232.598h71.93v12.345c103.144 20.335 178.673 53.575 221.711 96.638-37.203-73.381-166.798-115.796-293.646-132.533v23.548h0.003zM615.991 448.099h-39.454v71.937h-12.509v331.861c23.507-2.767 46.565-7.384 69.096-13.84-15.121-40.138-22.788-82.377-22.788-125.814 0-149.73 92.685-281.821 229.804-334.102-1.914-0.762-3.848-1.517-5.803-2.263l10.937-28.642c53.563 20.457 93.164 45.614 118.322 75.083 0.105-1.357 0.241-2.709 0.336-4.068l-0.059 0.013c-11.441-62.943-95.322-114.267-231.093-142.042v39.633c27.771 5.488 53.972 12.036 78.036 19.506l-9.093 29.282c-21.313-6.62-44.45-12.477-68.943-17.496v16.648h-71.93v39.451c-0.005 24.733-20.125 44.852-44.86 44.852zM660.845 333.136h41.273v-69.878h-41.273v69.878zM957.648 469.494c-11.786-26.894-37.954-51.504-76.739-72.479-141.554 38.95-239.915 167.733-239.915 315.229 0 40.187 7.183 79.242 21.323 116.31 24.327-8.878 47.972-19.94 70.824-33.214 119.012-69.142 200.467-189.539 224.507-325.845zM488.513 864.299c0 9.892 8.049 17.938 17.939 17.938h8.972c9.891 0 17.938-8.049 17.938-17.938v-344.263h-44.852v344.263h0.003zM476.002 489.376h69.876v-41.278h-69.876v41.278zM391.699 403.246c0 7.826 6.367 14.193 14.193 14.193h210.1c7.826 0 14.195-6.367 14.195-14.193v-210.098c0-7.825-6.367-14.193-14.195-14.193h-210.1c-7.826 0-14.193 6.366-14.193 14.193v210.098zM319.762 333.136h41.278v-69.878h-41.278v69.878zM289.103 276.776c-132.284 27.466-215.054 77.678-228.121 139.171-0.266 1.175-0.491 2.371-0.68 3.563l-0.169-0.028c0.074 1.074 0.159 2.145 0.24 3.216 40.892-47.639 119.883-84.643 228.729-106.433v-39.489zM361.431 828.489c14.116-37.034 21.285-76.066 21.285-116.246 0-147.308-98.143-275.998-239.432-315.116-34.688 18.761-59.594 40.462-72.851 64.188l0.437 0.436-4.55 8.212c29.116 165.224 141.904 302.762 295.111 358.525zM855.864 91.195c-91.594-49.936-213.711-77.437-343.85-77.437-130.152 0-252.278 27.501-343.878 77.437-88.656 48.329-137.482 111.542-137.482 177.994 0 19.257 4.133 38.313 12.284 56.932 10.68-20.33 27.123-39.199 49.353-56.413 1.377-1.071 2.78-2.142 4.208-3.213l0.902-0.654c0.575-0.413 1.143-0.823 1.886-1.373l2.808-2.001c1.794-1.252 3.612-2.486 5.638-3.852 13.11-8.714 27.933-16.981 44.060-24.577l13.059 27.739c-14.772 6.958-28.28 14.482-40.156 22.377-1.689 1.142-3.38 2.286-4.849 3.307l-2.44 1.739c-0.69 0.511-1.38 1.008-2.080 1.514l-0.547 0.397c-1.244 0.932-2.469 1.865-3.694 2.822-19.339 14.973-33.339 31.17-41.945 48.434 42.614-43.087 117.652-76.427 219.955-96.885v-12.879h71.936v-23.24c-55.511 7.567-111.892 20.53-157.024 36.255l-10.087-28.953c48.824-17.014 110.129-30.918 169.775-38.594 6.214-17.325 22.752-29.771 42.188-29.771h210.1c19.323 0 35.788 12.305 42.080 29.476 169.426 21.010 283.924 74.654 322.896 148.56 8.214-18.687 12.375-37.815 12.375-57.145 0-66.451-48.821-129.664-137.476-177.994zM510.941 197.221c55.68 0 100.976 45.296 100.976 100.976s-45.296 100.975-100.976 100.975-100.979-45.296-100.979-100.975c0-55.68 45.299-100.976 100.979-100.976zM510.941 368.518c38.774 0 70.318-31.546 70.318-70.319 0-38.777-31.546-70.318-70.318-70.318-38.774 0-70.319 31.543-70.319 70.318 0 38.772 31.546 70.319 70.319 70.319zM510.941 256.771c22.842 0 41.426 18.582 41.426 41.426s-18.582 41.426-41.426 41.426c-22.843 0-41.426-18.582-41.426-41.426s18.586-41.426 41.426-41.426zM510.941 308.964c5.938 0 10.767-4.831 10.767-10.766s-4.83-10.766-10.767-10.766c-5.938 0-10.766 4.831-10.766 10.766s4.828 10.766 10.766 10.766z" />
<glyph unicode="&#xe903;" glyph-name="history-icon" d="M810.661-63.971h-447.983c-5.657 0-11.084 2.248-15.084 6.249s-6.249 9.428-6.249 15.084v170.66c0 39.272-18.281 42.43-21.929 42.665h-127.398c-11.296-0.33-22.539 1.65-33.041 5.823-10.503 4.171-20.041 10.445-28.032 18.433-7.991 7.992-14.264 17.53-18.435 28.032-4.172 10.504-6.153 21.746-5.822 33.042v69.351c-12.265 9.541-27.149 15.116-42.665 15.978-8.472-0.248-16.904 1.238-24.781 4.367s-15.030 7.835-21.023 13.825c-5.993 5.994-10.698 13.147-13.826 21.025-3.129 7.876-4.615 16.308-4.367 24.78 0.003 3.602 0.913 7.145 2.645 10.304l104.017 188.494v57.192h42.665v-62.675c-0.006-3.609-0.915-7.159-2.645-10.324l-103.569-187.725c0.264-2.469 1.017-4.861 2.214-7.034 1.196-2.175 2.813-4.089 4.757-5.634s4.174-2.687 6.563-3.361c2.389-0.676 4.888-0.869 7.352-0.569 29.071-1.263 56.755-12.779 78.141-32.512 2.258-2 4.067-4.456 5.306-7.207s1.881-5.732 1.883-8.75v-79.528c-0.367-5.698 0.486-11.41 2.5-16.752s5.145-10.194 9.182-14.23 8.889-7.168 14.231-9.182c5.343-2.014 11.054-2.867 16.751-2.501h127.994c22.145 0 63.997-17.835 63.997-85.329v-149.327h405.319v127.995c0 5.657 2.246 11.084 6.246 15.084 4.003 4 9.428 6.249 15.086 6.249 61.692 0 82.257 74.94 85.329 87.675v82.983h42.665v-85.329c0-1.434-0.143-2.863-0.428-4.267-7.766-38.89-39.549-109.242-106.234-121.851v-129.871c0-5.657-2.248-11.084-6.249-15.084-4.003-4-9.428-6.249-15.084-6.249zM618.669 597.334h-42.665v-149.327h42.665v149.327zM597.334 576.004c-2.842-0.002-5.657 0.562-8.276 1.663l-405.317 170.66c-3.874 1.627-7.181 4.361-9.507 7.86s-3.566 7.607-3.566 11.808c0 4.202 1.241 8.31 3.566 11.808s5.633 6.234 9.507 7.861l405.317 170.66c2.624 1.088 5.436 1.648 8.276 1.648s5.652-0.56 8.278-1.648l405.316-170.66c3.873-1.627 7.179-4.361 9.505-7.861s3.568-7.607 3.568-11.808c0-4.202-1.242-8.31-3.568-11.808s-5.632-6.234-9.505-7.86l-405.316-170.66c-2.621-1.101-5.436-1.666-8.278-1.663zM246.991 767.995l350.343-147.513 350.343 147.513-350.343 147.514-350.343-147.514zM597.336 234.683c-3.088-0.007-6.139 0.662-8.938 1.962l-277.321 127.995c-3.7 1.709-6.833 4.44-9.032 7.873-2.196 3.434-3.363 7.423-3.363 11.498v341.318h42.665v-327.666l255.989-118.181 255.989 118.181v327.666h42.665v-341.318c0-4.076-1.167-8.065-3.363-11.498s-5.332-6.164-9.032-7.873l-277.321-127.995c-2.799-1.299-5.85-1.968-8.938-1.962zM981.32 469.339h-42.665c-5.657 0-11.084 2.248-15.084 6.249s-6.249 9.428-6.249 15.084v127.995c0 5.657 2.248 11.084 6.249 15.084s9.428 6.249 15.084 6.249h42.665v127.995h42.665v-255.989c-0.002-5.657-2.251-11.082-6.251-15.081l-21.332-21.332c-4-4-9.425-6.249-15.081-6.251zM959.988 512.004h12.501l8.831 8.831v76.499h-21.332v-85.329zM640.002 789.325h-85.329v-42.665h85.329v42.665z" />
<glyph unicode="&#xe904;" glyph-name="humanities-icon" d="M579.415 574.935c10.885 0 20.514 8.305 20.933 18.59l8.791 146.743c0.838 11.075-8.372 20.171-19.675 20.963-11.723 0.791-21.352-7.911-22.189-18.59l-8.791-146.743c-0.838-11.075 8.374-20.172 19.677-20.963 0.417 0 0.836 0 1.256 0zM704.173 628.334c10.885 0 20.514 8.305 20.933 18.59l9.21 153.863c0.838 11.075-8.372 20.172-19.675 20.964s-21.352-7.91-22.189-18.59l-9.21-153.862c-0.838-11.075 8.374-20.172 19.677-20.963 0.419 0 0.836 0 1.256 0zM1008.95 303.204c-19.677 22.942-51.913 30.457-80.381 18.986l-259.146-102.839c-10.885-4.35-15.909-15.822-11.304-26.106s16.747-15.030 27.632-10.679l259.146 102.839c10.885 4.35 23.863 1.186 31.398-7.515 4.605-5.538 6.699-12.657 5.443-19.776s-5.443-13.448-12.141-17.403c-113.036-69.615-370.506-207.261-382.647-213.985-0.417-0.395-0.836-0.395-1.256-0.791-31.398-17.403-66.147-22.15-110.524-15.030-2.513 0.395-46.889 5.538-206.394 24.127l-70.753 9.098v267.776c11.723 0.791 21.77 1.185 26.375 1.185h2.511c97.965 5.933 191.324-11.866 290.126-30.852 12.559-2.374 25.538-4.745 38.097-7.119 13.398-2.374 23.445-13.844 23.445-26.896 0-0.791 0-1.583-0.419-3.164-0.838-7.517-5.024-13.053-8.374-15.822-5.443-5.141-12.559-7.911-20.514-7.911h-197.184c-11.723 0-20.933-8.702-20.933-19.776s9.21-19.776 20.933-19.776h198.021c18.84 0 36.842 7.119 50.238 19.776 11.304 11.075 18.421 24.524 20.095 38.367 0.417 2.769 0.836 5.933 0.836 8.703 0 32.038-24.282 59.726-57.354 65.658-12.56 2.374-25.12 4.747-37.679 7.12-97.127 18.59-198.021 37.972-301.010 31.643h-2.092c-4.605-0.395-14.653-0.791-25.538-1.185-2.513 8.305-10.048 14.634-20.095 14.634h-156.575c-11.722 0-20.933-8.702-20.933-19.776v-333.831c0-11.075 9.21-19.776 20.933-19.776h156.156c8.374 0 15.491 4.745 18.84 11.469l67.822-7.911c84.148-9.888 199.276-22.941 204.301-23.731 15.49-2.769 30.562-3.956 44.796-3.956 34.749 0 65.73 7.911 93.779 23.336 0.419 0 0.419 0.396 0.838 0.396 2.511 1.583 268.773 143.58 385.159 215.17 16.328 9.888 27.632 26.106 30.562 44.3s-2.094 36.785-14.234 51.024zM156.158 32.261h-114.291v293.883h114.291v-293.883zM490.242 555.556c9.629 6.328 11.723 18.986 5.024 27.688-37.679 49.837-34.749 115.101 7.116 162.169 83.73 93.742 216.023 127.363 319.43 138.833 4.188-56.166-4.186-119.056-23.444-179.968-7.118-22.15-73.265-215.566-214.768-175.617-5.861 1.978-43.121 17.8-51.075 22.15-4.606 3.164-10.467 4.747-16.328 3.955-26.794-4.35-54.007-94.928-56.101-137.646-0.417-11.075 8.374-20.171 20.095-20.567 0.419 0 0.838 0 0.838 0 11.304 0 20.514 8.305 20.933 18.986 1.675 37.179 16.326 73.965 25.538 93.741 2.93-1.186 6.28-2.768 10.048-4.35 6.697-2.768 28.049-12.262 33.492-13.448 137.735-38.762 230.258 84.645 267.517 202.118 23.026 72.779 31.399 148.721 23.026 215.962-2.094 10.284-12.978 18.194-24.282 17.404-162.437-14.24-289.288-68.032-367.157-154.653-54.843-61.308-58.611-145.953-9.21-210.821 6.699-10.283 19.677-12.657 29.305-5.933z" />
<glyph unicode="&#xe905;" glyph-name="mail-icon" d="M933.999 807.999h-844c-49.524 0-90-40.298-90-90v-539.999c0-49.722 40.502-90.001 90-90.001h844c49.525 0 90.001 40.299 90.001 90.001v539.999c0 49.714-40.497 90-90.001 90zM920.18 747.999c-29.097-29.194-370.889-372.1-384.933-386.189-11.727-11.763-34.761-11.772-46.494 0l-384.933 386.189h816.36zM60 189.030v517.94l258.129-258.97-258.129-258.969zM103.82 148l256.669 257.504 85.769-86.050c35.149-35.262 96.352-35.247 131.488 0l85.769 86.048 256.666-257.502h-816.36zM964 189.030l-258.129 258.969 258.129 258.97v-517.94z" />
<glyph unicode="&#xe906;" glyph-name="management-icon" d="M1007.687 588.582l-221.808 220.793c-10.658 10.399-24.988 16.225-39.913 16.225s-29.256-5.825-39.914-16.225l-30.981-30.839c-9.96-10.152-15.739-23.651-16.196-37.835s4.439-28.023 13.724-38.79c-13.684-11.439-29.591-19.947-46.728-24.993-17.135-5.046-35.132-6.52-52.866-4.333-33.189 3.96-66.811-2.034-96.554-17.216h-1.331l-76.027 9.649c-8.504 1.037-16.409 4.904-22.428 10.973l-25.279 25.163c9.444 10.745 14.474 24.638 14.087 38.909s-6.163 27.873-16.177 38.095l-30.981 30.839c-10.658 10.399-24.99 16.225-39.914 16.225s-29.256-5.825-39.914-16.225l-222.188-220.415c-10.447-10.61-16.3-24.875-16.3-39.731s5.852-29.121 16.3-39.731l30.981-30.839c10.268-9.967 23.932-15.717 38.27-16.104 14.337-0.385 28.293 4.62 39.087 14.022l48.657-48.246c7.404-7.565 12.765-16.871 15.586-27.054 10.030-37.031 29.699-70.773 57.020-97.815-5.118-9.571-7.66-20.297-7.38-31.135 0.282-10.837 3.375-21.419 8.982-30.714s13.535-16.988 23.012-22.329c9.479-5.342 20.185-8.15 31.076-8.152-0.051-8.288 1.551-16.503 4.714-24.169 3.163-7.667 7.823-14.632 13.712-20.493 5.886-5.86 12.884-10.498 20.587-13.648s15.954-4.744 24.28-4.694c0.181-16.795 7.011-32.839 19.007-44.651 9.559-9.54 21.963-15.744 35.357-17.688s27.060 0.479 38.959 6.905l3.42-3.405c7.467-7.49 16.713-12.979 26.88-15.96 10.168-2.981 20.928-3.356 31.28-1.091s19.962 7.096 27.935 14.047c7.975 6.95 14.057 15.793 17.681 25.707l7.792-7.757c5.864-5.875 12.838-10.536 20.521-13.719 7.681-3.181 15.92-4.82 24.241-4.82s16.558 1.639 24.239 4.82c7.683 3.183 14.656 7.844 20.521 13.719 6.282 6.432 11.026 14.193 13.876 22.703l9.313-9.27c11.871-11.817 27.972-18.457 44.76-18.457s32.889 6.64 44.762 18.457c11.871 11.817 18.54 27.843 18.54 44.555s-6.668 32.738-18.54 44.555l-9.313 9.271c8.535 3.028 16.269 7.943 22.618 14.379 5.976 5.782 10.735 12.691 13.999 20.326s4.965 15.839 5.008 24.135c-0.046 9.965-2.525 19.769-7.223 28.569l3.612 3.783c24.697 24.343 41.454 55.528 48.087 89.489 5.201 26.867 18.454 51.535 38.014 70.759l9.694 9.649c10.793-9.4 24.75-14.407 39.087-14.022s28.001 6.135 38.27 16.103l30.981 30.84c10.202 10.656 15.844 24.842 15.738 39.562s-5.953 28.823-16.309 39.331zM73.509 504.958l-30.981 30.082c-3.54 3.544-5.526 8.34-5.526 13.339s1.987 9.794 5.526 13.338l222.378 221.551c1.775 1.861 3.913 3.341 6.282 4.354s4.921 1.535 7.498 1.535c2.578 0 5.13-0.522 7.497-1.535 2.37-1.013 4.507-2.494 6.282-4.354l29.46-30.839c1.869-1.768 3.357-3.895 4.375-6.253s1.541-4.898 1.541-7.464-0.525-5.106-1.541-7.464c-1.018-2.358-2.506-4.485-4.375-6.253l-220.857-220.036c-1.776-1.86-3.913-3.342-6.282-4.354s-4.92-1.533-7.498-1.533c-2.578 0-5.13 0.521-7.498 1.533s-4.506 2.495-6.282 4.354zM283.912 254.84c-2.553 2.452-4.582 5.391-5.968 8.643s-2.1 6.746-2.1 10.277 0.714 7.026 2.1 10.277c1.386 3.251 3.416 6.19 5.968 8.643 4.942 4.841 11.598 7.555 18.532 7.555s13.59-2.713 18.532-7.555c2.496-2.423 4.488-5.311 5.862-8.499 1.374-3.19 2.106-6.616 2.149-10.086 0.045-3.47-0.599-6.915-1.892-10.136-1.293-3.223-3.212-6.16-5.644-8.645s-5.335-4.467-8.539-5.836c-3.204-1.368-6.646-2.095-10.132-2.139s-6.945 0.595-10.182 1.883-6.189 3.197-8.685 5.619zM347.205 191.837c-3.725 3.675-6.258 8.376-7.273 13.498-1.014 5.123-0.463 10.43 1.583 15.236s5.494 8.892 9.896 11.73 9.558 4.296 14.801 4.187c3.521 0.105 7.025-0.513 10.294-1.815s6.235-3.261 8.711-5.752c2.53-2.466 4.538-5.411 5.909-8.659s2.077-6.736 2.077-10.261-0.707-7.013-2.077-10.261c-1.372-3.249-3.38-6.193-5.909-8.658-2.556-2.592-5.616-4.636-8.995-6.010-3.379-1.372-7.003-2.044-10.651-1.973-3.647 0.070-7.244 0.882-10.565 2.384s-6.3 3.664-8.753 6.353h0.95zM410.498 128.835c-2.577 2.438-4.629 5.374-6.030 8.626s-2.125 6.755-2.125 10.294c0 3.539 0.724 7.041 2.125 10.294s3.453 6.187 6.030 8.626c5.079 4.927 11.915 7.648 19.007 7.569 4.284-0.089 8.481-1.221 12.224-3.299 3.743-2.076 6.919-5.034 9.247-8.615 2.33-3.58 3.741-7.674 4.114-11.923 0.371-4.249-0.308-8.526-1.98-12.453s-4.286-7.389-7.611-10.077c-3.325-2.689-7.263-4.528-11.468-5.353s-8.548-0.612-12.65 0.621-7.839 3.447-10.882 6.449v-0.757zM763.642 255.407c-5.079-4.946-11.902-7.715-19.007-7.715s-13.928 2.769-19.007 7.715l-192.917 192.792c-1.526 2.395-3.572 4.418-5.989 5.92s-5.142 2.443-7.974 2.756c-2.831 0.311-5.697-0.014-8.385-0.954s-5.13-2.468-7.145-4.474c-2.013-2.006-3.549-4.435-4.494-7.112-0.944-2.675-1.27-5.528-0.958-8.347 0.314-2.82 1.259-5.532 2.769-7.937 1.508-2.407 3.54-4.444 5.947-5.962l242.716-242.361c2.502-2.476 4.481-5.426 5.819-8.674 1.338-3.251 2.010-6.733 1.973-10.245 0.069-3.516-0.588-7.009-1.928-10.263-1.34-3.256-3.335-6.2-5.864-8.657-4.942-4.841-11.598-7.555-18.532-7.555s-13.59 2.713-18.532 7.555l-242.716 242.551c-3.647 2.302-7.973 3.299-12.266 2.825-4.293-0.472-8.295-2.386-11.35-5.426-3.053-3.040-4.977-7.025-5.452-11.297-0.475-4.274 0.526-8.58 2.84-12.211l192.917-191.846c5.042-5.018 7.873-11.824 7.873-18.919s-2.831-13.902-7.873-18.919c-5.041-5.018-11.878-7.836-19.007-7.836s-13.966 2.819-19.007 7.836l-191.968 192.792c-3.647 2.302-7.973 3.299-12.266 2.825-4.293-0.472-8.295-2.386-11.35-5.426s-4.977-7.025-5.452-11.297c-0.475-4.272 0.526-8.58 2.84-12.211l144.45-143.79c2.496-2.485 4.476-5.434 5.826-8.68 1.352-3.246 2.047-6.727 2.047-10.24s-0.695-6.993-2.047-10.238c-1.35-3.246-3.33-6.196-5.826-8.681s-5.459-4.456-8.721-5.799c-3.261-1.345-6.756-2.036-10.286-2.036s-7.025 0.691-10.286 2.036c-3.262 1.343-6.224 3.315-8.721 5.799l-3.421 3.405c5.189 9.549 7.787 20.281 7.538 31.135s-3.338 21.455-8.96 30.758c-5.622 9.303-13.586 16.985-23.103 22.29s-20.258 8.046-31.164 7.956c0.104 8.275-1.467 16.488-4.618 24.146-3.152 7.66-7.818 14.608-13.724 20.436-5.906 5.825-12.929 10.409-20.652 13.476s-15.986 4.556-24.3 4.378c0.27 10.948-2.348 21.774-7.594 31.398-5.245 9.626-12.936 17.714-22.301 23.457-9.367 5.743-20.082 8.942-31.078 9.276s-21.887-2.208-31.588-7.373c-22.583 22.717-38.715 50.983-46.757 81.922-4.329 16.51-13.063 31.546-25.279 43.514l-48.467 48.056 174.101 173.305 25.089-24.974c11.873-11.743 27.305-19.257 43.905-21.38l39.154-4.919-93.513-93.086c-7.003-6.494-12.619-14.328-16.516-23.032-3.895-8.702-5.99-18.098-6.158-27.623-0.169-9.527 1.591-18.989 5.177-27.823 3.584-8.834 8.92-16.86 15.687-23.597 6.769-6.738 14.83-12.049 23.705-15.617s18.381-5.321 27.951-5.152c9.571 0.167 19.008 2.253 27.751 6.13 8.742 3.878 16.612 9.47 23.138 16.441l62.911 62.624c5.636 5.49 12.438 9.649 19.907 12.17s15.41 3.341 23.238 2.398l216.297-215.306c2.477-2.485 4.426-5.442 5.732-8.691s1.942-6.729 1.87-10.228c-0.077-6.806-2.802-13.316-7.602-18.163h0.95zM816.1 402.98c-5.324-26.822-18.559-51.458-38.014-70.759l-1.329-1.324-146.922 145.87c18.64-4.812 37.77-7.478 57.020-7.946 2.463-0.186 4.938 0.145 7.265 0.971s4.455 2.125 6.245 3.818 3.206 3.743 4.152 6.013c0.947 2.271 1.404 4.714 1.343 7.172 0 5.019-2.002 9.83-5.566 13.378s-8.399 5.542-13.44 5.542c-36.040 0.964-71.313 10.569-102.825 28-17.081 9.578-36.827 13.373-56.263 10.813s-37.511-11.333-51.505-25.002l-62.911-62.626c-2.972-3.878-6.748-7.076-11.069-9.376-4.322-2.302-9.090-3.65-13.982-3.957s-9.792 0.437-14.369 2.179-8.726 4.443-12.163 7.92c-3.438 3.476-6.085 7.648-7.763 12.231s-2.346 9.473-1.959 14.337c0.385 4.863 1.816 9.588 4.196 13.853s5.651 7.971 9.594 10.868l95.033 94.598c14.062 13.856 31.108 24.344 49.844 30.671 18.738 6.325 38.676 8.325 58.304 5.844 23.128-2.829 46.591-0.806 68.885 5.94 22.292 6.744 42.918 18.062 60.552 33.224l174.671-173.305-9.503-9.27c-24.475-24.503-41.024-55.737-47.517-89.68zM982.028 535.419l-31.551-30.461c-1.775-1.86-3.913-3.342-6.282-4.354s-4.921-1.533-7.498-1.533-5.13 0.521-7.498 1.533c-2.368 1.013-4.505 2.495-6.281 4.354l-220.859 220.036c-1.869 1.768-3.357 3.895-4.374 6.253s-1.541 4.898-1.541 7.464 0.524 5.106 1.541 7.464c1.017 2.358 2.505 4.485 4.374 6.253l30.981 30.839c1.775 1.861 3.913 3.341 6.282 4.354s4.921 1.535 7.498 1.535c2.578 0 5.13-0.522 7.498-1.535s4.505-2.494 6.281-4.354l220.859-221.551c3.539-3.544 5.526-8.339 5.526-13.338s-1.987-9.795-5.526-13.339l0.57 0.379z" />
<glyph unicode="&#xe907;" glyph-name="science-icon" d="M223.109 132.845c-5.167 4.888-10.383 9.81-15.601 14.78 77.71 76.234 156.849 169.891 156.849 296.931s-79.139 220.696-156.849 296.947c5.217 4.97 10.433 9.892 15.601 14.781 66.999 63.29 124.842 117.951 124.842 180.422v16.405h-32.81v-16.405c0-10.811-2.788-21.737-7.611-32.81h-247.257c-4.823 11.073-7.612 21.999-7.612 32.81v16.405h-32.81v-16.405c0-62.47 57.844-117.132 124.842-180.438 5.167-4.888 10.385-9.81 15.601-14.781-77.71-76.234-156.848-169.889-156.848-296.931 0-127.040 79.138-220.696 156.848-296.946-5.216-4.972-10.433-9.893-15.601-14.781-66.998-63.291-124.842-117.952-124.842-180.422v-16.404h32.81v16.404c0 10.811 2.789 21.737 7.612 32.81h247.272c4.808-11.073 7.596-21.999 7.596-32.81v-16.404h32.81v16.404c0 62.47-57.843 117.132-124.842 180.439zM79.895 871.085h208.015c-8.005-10.712-17.504-21.638-28.019-32.81h-151.976c-10.516 11.172-20.030 22.098-28.020 32.81zM140.592 805.466h86.602c-8.613-8.301-17.504-16.717-26.625-25.345-5.48-5.184-11.058-10.45-16.668-15.781-5.627 5.331-11.188 10.597-16.667 15.781-9.121 8.628-18.030 17.044-26.642 25.345zM183.901 718.733c19.85-19.424 39.47-39.585 57.599-60.911h-115.197c18.128 21.326 37.748 41.487 57.598 60.911zM61.685 559.391h155.027v32.81h-137.736c7.038 11.894 14.682 23.427 22.901 34.647v-1.837h164.050v1.837c8.219-11.204 15.864-22.753 22.902-34.647h-39.306v-32.81h56.613c4.806-10.614 8.859-21.605 12.419-32.81h-269.288c3.56 11.205 7.596 22.196 12.419 32.81zM40.801 493.772h286.217c1.969-10.63 3.101-21.622 3.79-32.81h-293.797c0.673 11.188 1.805 22.18 3.79 32.81zM49.25 362.531h52.627v32.81h-61.092c-1.969 10.63-3.101 21.622-3.79 32.81h293.797c-0.672-11.188-1.805-22.18-3.789-32.81h-192.316v-32.81h183.85c-3.56-11.204-7.596-22.195-12.419-32.809h-244.45c-4.807 10.614-8.859 21.605-12.419 32.809zM101.876 262.263c-8.219 11.222-15.864 22.755-22.901 34.648h209.853c-7.022-11.894-14.683-23.427-22.902-34.648v1.838h-164.050v-1.838zM126.303 231.291h115.197c-18.129-21.326-37.748-41.489-57.599-60.911-19.85 19.423-39.47 39.585-57.598 60.911zM167.234 108.992c5.478 5.184 11.057 10.45 16.667 15.781 5.627-5.348 11.188-10.614 16.668-15.781 9.121-8.63 18.029-17.044 26.625-25.347h-86.602c8.612 8.302 17.521 16.717 26.642 25.347zM79.895 18.027c8.006 10.712 17.504 21.638 28.020 32.81h151.993c10.515-11.172 20.014-22.098 28.019-32.81h-208.032zM938.529 67.24h-26.461c38.684 70.033 59.272 149.171 59.272 229.67 0 132.438-55.465 258.772-152.37 348.704l44.54 44.54-32.827 32.827 58.845 58.811 16.47-16.453 72.084 72.723-121.61 121.938-72.084-73.15 16.274-16.274-58.894-58.697-32.695 32.695-229.669-229.67-32.81 32.81-72.412-72.412 220.056-220.056 72.412 72.412-32.81 32.809 92.032 92.032c47.329-42.734 82.205-98.068 100.104-158.799-29.398-6.464-51.496-32.646-51.496-63.98 0-35.648 28.611-64.603 64.046-65.457-1.297-13.714-3.462-27.331-6.382-40.767-12.829 4.955-26.707 7.793-41.258 7.793h-246.075c-45.229 0-82.025-36.796-82.025-82.025v-16.404h214.577c-0.771-5.381-1.312-10.828-1.312-16.406v-49.215h-229.67c-45.229 0-82.025-36.796-82.025-82.025v-49.215h656.198v49.215c0 45.229-36.796 82.025-82.025 82.025zM856.604 913.409l75.185-75.414-25.92-26.166-75.25 75.201 25.985 26.379zM823.876 847.396l42.441-42.407-58.829-58.796-42.505 42.505 58.893 58.697zM594.238 401.656l-173.663 173.663 26.019 26.019 173.663-173.664-26.019-26.017zM610.644 483.681l-108.044 108.044 206.473 206.473 108.044-108.044-206.473-206.473zM749.102 575.73l46.673 46.671c90.769-83.78 142.756-201.765 142.756-325.491 0-58.172-11.451-115.59-33.4-168.873-3.199 31.793-19.473 59.73-43.277 78.514 5.332 21.655 8.745 43.85 10.172 66.194 19.997 11.254 33.695 32.433 33.695 56.975 0 29.004-19.028 53.381-45.162 62.028-18.324 70.344-57.402 134.734-111.456 183.982zM807.291 329.72c0 18.094 14.715 32.81 32.81 32.81s32.81-14.716 32.81-32.81c0-18.095-14.716-32.81-32.81-32.81s-32.81 14.715-32.81 32.81zM498.401 165.67c6.775 19.095 25.018 32.809 46.41 32.809h165.853c-9.629-9.416-17.519-20.522-23.377-32.809h-188.887zM987.744-31.188h-590.578v16.404c0 27.135 22.081 49.215 49.215 49.215h295.29v32.81h-32.809v49.215c0 45.229 36.796 82.025 82.025 82.025s82.025-36.796 82.025-82.025v-49.215h-98.431v-32.81h164.050c27.135 0 49.216-22.080 49.216-49.215v-16.404z" />
<glyph unicode="&#xe908;" glyph-name="vision-icon" d="M512.639-46.696c-188.976 0-342.712 154.881-342.712 345.256 0 68.553 19.896 134.802 57.536 191.568l26.568-17.615c-34.168-51.537-52.232-111.696-52.232-173.953 0-172.799 139.44-313.383 310.833-313.383 171.39 0 310.839 140.584 310.839 313.383 0 29.066-3.944 57.833-11.719 85.504l30.695 8.624c8.554-30.479 12.898-62.152 12.898-94.128 0.016-190.375-153.737-345.256-342.705-345.256zM512.639-46.696c-114.952 0-204.991 151.657-204.991 345.256 0 44.503 4.888 87.823 14.534 128.744l31.025-7.314c-9.079-38.518-13.687-79.383-13.687-121.43 0-172.801 77.662-313.385 173.111-313.385 95.384 0 172.985 140.584 172.985 313.385 0 39.608-4.096 78.224-12.151 114.8l31.127 6.863c8.561-38.823 12.896-79.751 12.896-121.663 0.016-193.6-89.975-345.256-204.848-345.256zM528.566 418.882h-31.871v-449.641h31.871v449.641zM818.103 166.569h-622.071l-3.872 10.361c-14.752 39.472-22.232 80.4-22.232 121.64 0 41.272 7.488 82.216 22.256 121.704l3.872 10.345h587.768v-31.871h-565.464c-10.992-32.672-16.56-66.305-16.56-100.168 0-33.833 5.56-67.457 16.536-100.12h599.761v-31.89h0.007zM531.688 399.199l-19.631 4.064c-45.689 9.455-94.329 26.351-148.719 51.655-82.921 38.584-114.049 72.481-114.84 125.074-0.2 20.91-0.391 32.072-0.601 43.206-0.2 11.264-0.4 22.512-0.598 43.577l31.878 0.305c0.2-20.937 0.4-32.113 0.601-43.313s0.407-22.439 0.608-43.383c0.407-27.4 8.096-55.48 96.408-96.561 44.328-20.617 84.48-35.383 122.088-44.831l-3.040 128.792 31.871 0.744 3.975-169.329zM499.489 399.005l-3.944 168.776 31.871 0.744 3.024-129.368c37.647 10.208 77.678 25.791 121.751 47.361 87.52 42.799 94.656 71.006 94.529 98.486-0.193 20.89-0.385 29.584-0.585 38.361-0.2 8.759-0.407 17.592-0.608 38.512l31.881 0.312c0.191-20.696 0.391-29.439 0.592-38.095 0.2-8.872 0.407-17.672 0.598-38.864 0.241-52.672-30.224-87.167-112.408-127.351-53.792-26.321-102.104-44.169-147.695-54.536l-19.008-4.337zM513.896 544.375l-513.896 194.153 510.089 204.168 513.911-194.208-510.104-204.113zM87.936 739.391l425.632-160.815 422.505 169.063-425.656 160.856-422.48-169.104zM811.126 526.27l-1.040 147.249-253.647 81.776 9.767 30.336 275.586-88.84 1.215-170.296-31.881-0.225zM511.122 749.559c-38.266 0-66.216 17.44-66.464 41.464-0.209 24 28.504 42.352 66.783 42.72l1.186 0.008c38.279 0 66.207-17.432 66.423-41.432 0.232-23.976-28.481-42.368-66.785-42.752l-1.142-0.008zM476.834 791.343c2.599-3.328 14.584-9.896 34.288-9.896h0.831c20.209 0.208 32.377 7.136 34.921 10.568-2.592 3.304-14.6 9.848-34.247 9.848h-0.874c-20.175-0.192-32.336-7.080-34.918-10.52zM886.552 370.561h-113.232v100.502c0 35.433 25.4 64.248 56.616 64.248s56.616-28.822 56.616-64.248v-100.502zM805.192 402.455h49.489v68.608c0 17.545-11.33 32.377-24.744 32.377-13.417 0-24.744-14.832-24.744-32.377v-68.608z" />
<glyph unicode="&#xe909;" glyph-name="address-icon" d="M682.952 283.43c108.964 170.987 95.266 149.654 98.406 154.112 39.673 55.955 60.642 121.814 60.642 190.459 0 182.039-147.724 331.999-330.001 331.999-181.684 0-330-149.664-330-331.999 0-68.6 21.408-136.184 62.38-192.893l96.665-151.681c-103.35-15.883-279.044-63.212-279.044-167.427 0-37.99 24.796-92.131 142.924-134.32 82.484-29.457 191.537-45.681 307.076-45.681 216.051 0 450.001 60.944 450.001 180.001 0 104.233-175.49 151.513-279.048 167.429zM294.496 468.11c-0.328 0.517-0.672 1.021-1.032 1.515-34.095 46.904-51.465 102.492-51.465 158.376 0 150.035 120.811 271.999 270 271.999 148.879 0 270-122.018 270-271.999 0-55.973-17.043-109.676-49.291-155.343-2.891-3.812 12.188 19.614-220.709-345.836l-217.503 341.289zM511.999-3.999c-235.987 0-390 69.364-390 120 0 34.031 79.136 89.989 254.496 111.802l110.203-172.927c5.509-8.644 15.048-13.877 25.298-13.877s19.792 5.236 25.298 13.877l110.203 172.927c175.364-21.814 254.501-77.771 254.501-111.802 0-50.205-152.626-120-390-120zM511.999 778c-82.71 0-150-67.29-150-149.999s67.29-150 150-150 150 67.29 150 150c0 82.709-67.29 149.999-150 149.999zM511.999 537.999c-49.627 0-89.999 40.374-89.999 90.002 0 49.625 40.372 89.999 89.999 89.999s89.999-40.374 89.999-89.999c0-49.627-40.372-90.002-89.999-90.002z" />
<glyph unicode="&#xe90a;" glyph-name="sm-arrow-icon" d="M810.667 447.999c0-18.352-7.171-36.702-21.483-50.694l-450.577-440.294c-28.663-28.015-75.134-28.015-103.785 0-28.651 27.998-28.651 73.395 0 101.41l398.696 389.578-398.682 389.582c-28.651 28.009-28.651 73.407 0 101.402 28.651 28.022 75.122 28.022 103.784 0l450.578-440.29c14.314-13.999 21.468-32.348 21.468-50.694z" />
<glyph unicode="&#xe90b;" glyph-name="open-book" d="M976.908 703.286h-17.034v49.096c0 5.821-3.363 11.119-8.63 13.599-139.482 65.636-299.154 66.57-439.244 2.904-140.090 63.666-299.761 62.73-439.244-2.904-5.268-2.479-8.631-7.777-8.631-13.599v-49.096h-17.034c-25.966 0-47.091-21.125-47.091-47.092v-529.034c0-25.967 21.125-47.092 47.091-47.092h929.817c25.966 0 47.092 21.125 47.092 47.092v529.034c0 25.967-21.126 47.092-47.092 47.092zM527.028 479.895c0 0.018 0 0.037 0 0.055v262.793c128.525 57.526 274.258 57.526 402.787 0v-54.428c0-0.020-0.001-0.040-0.001-0.058 0-0.019 0.001-0.041 0.001-0.059v-489.833c-64.6 26.973-133.001 40.465-201.393 40.465s-136.795-13.491-201.394-40.465v281.53zM430.842 766.839c22.418-6.42 44.521-14.424 66.129-24.096v-234.813l-24.727 16.485c-5.050 3.368-11.625 3.368-16.672 0l-24.728-16.486v258.911zM400.78 485.512v-5.661c0-5.542 3.050-10.637 7.937-13.251 4.884-2.616 10.816-2.327 15.428 0.746l39.758 26.505 33.065-22.043v-273.443c-64.6 26.975-133.001 40.465-201.394 40.465-68.392 0-136.795-13.49-201.393-40.465v489.85h0.004c0 0.015 0.003 0.027 0.003 0.041s-0.003 0.024-0.003 0.037v54.449c97.316 43.556 204.492 54.104 306.598 31.702v-65.841zM400.78 549.631v-33.385zM400.781 677.899v-97.563zM448.877 110.126h-401.786c-9.393 0-17.033 7.642-17.033 17.034v529.034c0 9.393 7.64 17.034 17.033 17.034h17.034v-514.004c0-8.3 6.729-15.030 15.028-15.030h369.723v-34.068zM114.804 174.252c116.425 45.957 245.119 45.96 361.546 0h-361.546zM545.064 110.126h-66.129v34.066h66.129v-34.066zM909.196 174.252h-361.546c116.426 45.957 245.119 45.957 361.546 0zM993.94 127.161c0-9.393-7.64-17.034-17.033-17.034h-401.784v34.066h369.722c8.3 0 15.028 6.73 15.028 15.030v514.005h17.034c9.393 0 17.033-7.642 17.033-17.034v-529.033z" />
<glyph unicode="&#xe90c;" glyph-name="close-line" d="M11.884 890.729c-15.842 15.842-15.842 41.533 0 57.383s41.533 15.85 57.383 0l442.729-442.729 442.729 442.729c15.842 15.85 41.533 15.85 57.392 0 15.842-15.842 15.842-41.542 0-57.383l-442.746-442.721 442.737-442.737c15.842-15.842 15.842-41.533 0-57.383-15.85-15.85-41.542-15.85-57.392 0l-442.729 442.729-442.721-442.729c-15.842-15.85-41.533-15.85-57.383 0-15.842 15.842-15.842 41.533 0 57.383l442.729 442.737-442.729 442.721z" />
<glyph unicode="&#xe90d;" glyph-name="notification-bell" d="M204.573 550.854c-0.028 63.875 19.841 126.173 56.846 178.237s89.309 91.308 149.642 112.281c-2.337 14.638-1.469 29.609 2.542 43.879s11.070 27.501 20.69 38.779c9.62 11.277 21.573 20.334 35.033 26.544s28.107 9.426 42.93 9.426c14.823 0 29.472-3.216 42.932-9.426s25.409-15.266 35.031-26.544c9.617-11.277 16.678-24.508 20.69-38.779s4.878-29.242 2.542-43.879c60.24-21.059 112.431-60.339 149.338-112.396 36.911-52.057 56.705-114.309 56.638-178.122v-307.428l153.713-102.476v-51.238h-922.28v51.238l153.713 102.476v307.428zM614.476 38.475c0-27.176-10.796-53.241-30.015-72.46s-45.284-30.015-72.46-30.015c-27.178 0-53.243 10.796-72.461 30.015s-30.014 45.284-30.014 72.46h204.951z" />
<glyph unicode="&#xe90e;" glyph-name="time1" d="M512-64c-282.77 0-512 229.23-512 512s229.23 512 512 512v0c282.77 0 512-229.23 512-512s-229.23-512-512-512v0zM512 38.4c226.216 0 409.6 183.384 409.6 409.6s-183.384 409.6-409.6 409.6v0c-226.216 0-409.6-183.384-409.6-409.6s183.384-409.6 409.6-409.6v0zM460.8 427.008v328.192h102.4v-286.208l202.24-202.24-72.192-72.192-232.448 232.448z" />
<glyph unicode="&#xe90f;" glyph-name="email-envelop" d="M52.027 841.1c33.313 33.312 78.495 52.027 125.605 52.027h668.732c47.112 0 92.296-18.714 125.605-52.027 33.314-33.313 52.030-78.495 52.030-125.605v-534.986c0-47.112-18.718-92.296-52.030-125.605-33.309-33.314-78.494-52.030-125.605-52.030h-668.732c-47.112 0-92.293 18.718-125.605 52.030-33.312 33.309-52.027 78.494-52.027 125.605v534.986c0 47.11 18.714 92.293 52.027 125.605zM177.632 805.356c-23.832 0-46.69-9.467-63.541-26.32s-26.32-39.709-26.32-63.541v-534.986c0-23.834 9.467-46.69 26.32-63.542s39.709-26.322 63.541-26.322h668.732c23.834 0 46.69 9.471 63.542 26.322s26.322 39.708 26.322 63.542v534.986c0 23.832-9.471 46.69-26.322 63.541s-39.708 26.32-63.542 26.32h-668.732zM140 671.2c12.47 20.783 39.427 27.523 60.211 15.053l311.789-187.074 311.79 187.074c20.78 12.47 47.738 5.731 60.207-15.053 12.472-20.783 5.731-47.741-15.053-60.211l-334.365-200.62c-13.899-8.339-31.26-8.339-45.158 0l-334.367 200.62c-20.783 12.47-27.523 39.427-15.053 60.211z" />
<glyph unicode="&#xe910;" glyph-name="plus" d="M438.857-64v438.857h-438.857v146.286h438.857v438.857h146.286v-438.857h438.857v-146.286h-438.857v-438.857h-146.286z" />
<glyph unicode="&#xe911;" glyph-name="delete" d="M170.666 49.777c0-62.577 51.2-113.777 113.777-113.777h455.111c62.577 0 113.777 51.2 113.777 113.777v682.667h-682.667v-682.667zM910.222 903.111h-199.111l-56.889 56.889h-284.444l-56.889-56.889h-199.111v-113.777h796.444v113.777z" />
<glyph unicode="&#xe912;" glyph-name="minus" d="M0 374.858v146.285h1024v-146.285h-1024z" />
<glyph unicode="&#xe913;" glyph-name="play" d="M916.955 583.51c24.591-13.077 45.158-32.599 59.505-56.473s21.924-51.202 21.924-79.053c0-27.851-7.578-55.181-21.924-79.056-14.346-23.869-34.913-43.392-59.505-56.468l-655.974-356.71c-105.626-57.446-235.366 17.306-235.366 135.475v713.47c0 118.272 129.741 192.973 235.366 135.578l655.974-356.762z" />
<glyph unicode="&#xe914;" glyph-name="check" d="M1023.998 765.094l-573.492-717.066-450.506 375.469 85.002 102.002 346.38-288.605 489.023 611.079 103.595-82.877z" />
<glyph unicode="&#xe915;" glyph-name="camera-movie" d="M819.199 499.197c0 49.101-34.816 90.163-80.947 100.046 18.432 30.772 29.747 66.355 29.747 104.756 0 112.948-91.853 204.8-204.8 204.8-77.67 0-144.435-43.878-179.199-107.725-34.765 63.846-101.53 107.725-179.199 107.725-112.948 0-204.8-91.853-204.8-204.8 0-46.182 15.974-88.421 41.831-122.675-12.922-9.45-23.443-21.807-30.71-36.075-7.266-14.265-11.076-30.039-11.12-46.049v-409.599c0-56.473 45.926-102.399 102.399-102.399h614.4c56.473 0 102.399 45.926 102.399 102.399v135.066l204.8-102.399v358.4l-204.8-102.399v120.934zM563.201 806.396c56.473 0 102.399-45.926 102.399-102.399s-45.926-102.399-102.399-102.399c-56.473 0-102.399 45.926-102.399 102.399s45.926 102.399 102.399 102.399zM204.801 806.396c56.473 0 102.399-45.926 102.399-102.399s-45.926-102.399-102.399-102.399c-56.473 0-102.399 45.926-102.399 102.399s45.926 102.399 102.399 102.399zM102.401 89.596v409.599h614.4l0.102-409.599h-614.502z" />
<glyph unicode="&#xe916;" glyph-name="pin-empty" d="M415.289 813.319c0 130.418 157.682 195.73 249.898 103.512l315.646-315.641c92.215-92.22 26.906-249.898-103.516-249.898-17.932 0-35.134-7.126-47.815-19.807l-88.651-88.651c-12.681-12.681-19.807-29.883-19.807-47.815 0-130.422-157.678-195.731-249.899-103.516l-129.972 129.975-273.945-273.944c-15.379-15.379-40.315-15.379-55.694 0s-15.379 40.311 0 55.691l273.945 273.949-129.975 129.969c-92.22 92.222-26.906 249.902 103.512 249.902 17.935 0 35.136 7.125 47.818 19.807l88.646 88.646c12.682 12.682 19.807 29.883 19.807 47.818zM609.495 861.136c-42.601 42.602-115.443 12.43-115.443-47.818 0-38.825-15.422-76.059-42.876-103.512l-88.646-88.646c-27.453-27.453-64.687-42.876-103.512-42.876-60.248 0-90.419-72.842-47.818-115.442l315.642-315.641c42.601-42.601 115.44-12.429 115.44 47.82 0 38.825 15.421 76.059 42.879 103.511l88.645 88.645c27.451 27.451 64.685 42.879 103.511 42.879 60.249 0 90.42 72.839 47.82 115.44l-315.64 315.64z" />
<glyph unicode="&#xe917;" glyph-name="pin-fill" d="M662.887 927.179c-70.11 70.112-189.993 20.456-189.993-78.697 0-29.517-11.725-57.825-32.597-78.697l-92.2-92.2c-20.872-20.872-49.18-32.597-78.697-32.597-99.153 0-148.81-119.881-78.698-189.993l135.184-135.182-313.888-313.89c-15.996-15.997-15.996-41.927 0-57.924s41.93-15.997 57.926 0l313.888 313.884 135.182-135.179c70.114-70.11 189.99-20.457 189.99 78.694 0 29.52 11.73 57.828 32.603 78.7l92.2 92.2c20.867 20.872 49.18 32.597 78.694 32.597 99.152 0 148.81 119.881 78.7 189.993l-328.294 328.292z" />
<glyph unicode="&#xe918;" glyph-name="my-posted-internship" d="M97.524 789.334v-682.667c0-94.257 76.41-170.666 170.666-170.666h487.62c94.257 0 170.666 76.41 170.666 170.666v682.667c0 94.257-76.41 170.666-170.666 170.666h-487.62c-94.257 0-170.666-76.41-170.666-170.666zM146.286 106.665c0 67.326 54.578 121.905 121.905 121.905h609.524v-121.905c0-67.326-54.579-121.905-121.905-121.905h-487.62c-67.326 0-121.905 54.579-121.905 121.905zM877.715 277.333h-609.524c-47.754 0-90.928-19.613-121.905-51.224v563.225c0 67.326 54.578 121.905 121.905 121.905h487.62c67.326 0 121.905-54.578 121.905-121.905v-512.001zM536.381 701.908v-233.711c0-13.463-10.918-24.381-24.381-24.381s-24.381 10.918-24.381 24.381v233.711l-55.901-55.903c-9.523-9.521-24.961-9.521-34.482 0s-9.522 24.959 0 34.48l63.042 63.043c28.565 28.565 74.879 28.565 103.444 0l63.045-63.043c9.519-9.521 9.519-24.959 0-34.48-9.523-9.521-24.961-9.521-34.485 0l-55.901 55.903z" />
<glyph unicode="&#xe919;" glyph-name="kf-logo" d="M513.656 959.999c0 0 132.794-130.934 434.703-156.398 0 0 112.767-571.116-437.407-867.602 0 0-511.993 232.829-437.421 867.602 0 0 303.712 23.674 440.126 156.398zM516.008 830.163c-102.007-99.275-329.161-116.964-329.161-116.964-55.771-474.7 327.119-648.814 327.119-648.814 411.45 221.703 327.132 648.814 327.132 648.814-225.801 19.041-325.091 116.964-325.091 116.964zM518.768 682.806c-0.648 6.507-1.493 14.802-1.493 14.802-0.338 2.986-4.69 2.999-5.028 0l-1.521-14.999c-206.099-2.492-246.758-195.55-246.758-195.55 65.503 57.798 124.766-0.62 124.766-0.62 59.207 45.306 106.514 15.83 121.231 4.154v-264.278c0-12.154-9.886-22.026-22.041-22.026s-22.041 9.872-22.041 22.026v23.717c0 2.62-2.127 4.76-4.774 4.76s-4.774-2.14-4.774-4.76v-23.717c0-17.435 14.168-31.603 31.603-31.603s31.618 14.168 31.618 31.603v264.236c59.095 48.49 120.611-4.126 120.611-4.126 63.009 60.517 125.386 4.352 125.386 4.352-52.236 189.212-218.816 192.789-246.785 192.029z" />
<glyph unicode="&#xe91a;" glyph-name="location" d="M512-64c-172.799 0-460.799 317.536-460.799 568.891 0 251.35 206.307 455.109 460.799 455.109s460.799-203.759 460.799-455.109c0-251.354-287.999-568.891-460.799-568.891zM512 345.602c84.83 0 153.6 68.769 153.6 153.6s-68.769 153.6-153.6 153.6c-84.83 0-153.6-68.769-153.6-153.6s68.769-153.6 153.6-153.6z" />
<glyph unicode="&#xe91b;" glyph-name="cross" d="M1024 856.869l-103.131 103.131-408.869-408.869-408.869 408.869-103.131-103.131 408.869-408.869-408.869-408.869 103.131-103.131 408.869 408.869 408.869-408.869 103.131 103.131-408.869 408.869 408.869 408.869z" />
<glyph unicode="&#xe91c;" glyph-name="down-arrow" d="M14.636 667.804c23.040 28.801 65.066 33.471 93.867 10.43l403.498-322.798 403.497 322.798c28.806 23.040 70.825 18.371 93.869-10.43 23.035-28.8 18.37-70.826-10.436-93.867l-445.212-356.173c-24.39-19.512-59.047-19.512-83.437 0l-445.216 356.173c-28.8 23.041-33.47 65.066-10.43 93.867z" />
<glyph unicode="&#xe91d;" glyph-name="add-follower" d="M632.889 732.444c0-125.676-101.88-227.556-227.556-227.556s-227.556 101.88-227.556 227.556c0 125.676 101.88 227.556 227.556 227.556s227.556-101.88 227.556-227.556zM803.555 163.556c0-125.673-178.29-227.556-398.222-227.556s-398.222 101.882-398.222 227.556c0 125.673 178.29 227.556 398.222 227.556s398.222-101.882 398.222-227.556zM860.444 405.333c-23.563 0-42.667 19.103-42.667 42.667v71.111h-71.111c-23.563 0-42.667 19.103-42.667 42.667s19.103 42.667 42.667 42.667h71.111v71.111c0 23.564 19.103 42.667 42.667 42.667s42.667-19.103 42.667-42.667v-71.111h71.111c23.563 0 42.667-19.103 42.667-42.667s-19.103-42.667-42.667-42.667h-71.111v-71.111c0-23.564-19.103-42.667-42.667-42.667z" />
<glyph unicode="&#xe91e;" glyph-name="search" d="M904.94 471.819c0-230.158-186.583-416.741-416.741-416.741s-416.741 186.583-416.741 416.741c0 230.159 186.582 416.739 416.741 416.739s416.741-186.581 416.741-416.739zM488.199-16.363c269.615 0 488.182 218.567 488.182 488.182s-218.567 488.181-488.182 488.181c-269.615 0-488.182-218.566-488.182-488.181s218.566-488.182 488.182-488.182zM918.263 92.234c-13.946 13.946-36.563 13.946-50.516 0-13.946-13.952-13.946-36.571 0-50.516l95.26-95.26c13.946-13.946 36.563-13.946 50.516 0 13.946 13.952 13.946 36.571 0 50.516l-95.26 95.26z" />
<glyph unicode="&#xe91f;" glyph-name="circle-cross" d="M0 448c0 282.769 229.23 512 512 512s512-229.23 512-512c0-282.771-229.229-512-512-512-282.769 0-512 229.229-512 512zM512 888.557c-243.314 0-440.557-197.245-440.557-440.557s197.245-440.557 440.557-440.557c243.312 0 440.557 197.246 440.557 440.557 0 243.314-197.246 440.557-440.557 440.557zM352.029 607.971c13.95 13.95 36.567 13.95 50.517 0l109.454-109.454 109.454 109.454c13.95 13.95 36.569 13.95 50.519 0 13.946-13.95 13.946-36.567 0-50.517l-109.454-109.454 109.454-109.454c13.95-13.95 13.95-36.569 0-50.519s-36.569-13.95-50.519 0l-109.454 109.454-109.454-109.454c-13.95-13.95-36.567-13.95-50.517 0s-13.95 36.569 0 50.519l109.454 109.454-109.454 109.454c-13.95 13.95-13.95 36.567 0 50.517z" />
<glyph unicode="&#xe920;" glyph-name="clock" d="M511.999 677.045c22.324 0 40.42-18.097 40.42-40.42v-214.154l123.473-82.315c18.574-12.383 23.594-37.479 11.211-56.054s-37.479-23.594-56.054-11.211l-141.472 94.315c-11.245 7.497-17.999 20.117-17.999 33.632v235.787c0 22.324 18.097 40.42 40.42 40.42zM511.999 784.834c-212.074 0-383.996-171.92-383.996-383.996s171.92-383.992 383.996-383.992 383.996 171.917 383.996 383.992c0 212.074-171.92 383.996-383.996 383.996zM47.163 400.839c0 256.722 208.114 464.836 464.836 464.836 256.719 0 464.836-208.114 464.836-464.836 0-256.725-208.117-464.834-464.836-464.834-256.722 0-464.836 208.11-464.836 464.834zM322.518 935.764c8.945-20.454-0.386-44.285-20.839-53.229-92.963-40.652-171.947-107.469-227.592-191.16-12.361-18.59-37.449-23.64-56.039-11.28s-23.64 37.449-11.28 56.039c64.148 96.478 155.201 173.539 262.521 220.469 20.454 8.944 44.285-0.386 53.229-20.839zM701.483 935.764c8.944 20.454 32.775 29.784 53.225 20.839 107.324-46.93 198.376-123.99 262.523-220.469 12.361-18.589 7.308-43.679-11.277-56.039-18.594-12.361-43.678-7.31-56.039 11.28-55.643 83.689-134.633 150.507-227.594 191.16-20.454 8.944-29.783 32.775-20.839 53.229zM217.548 150.266c17.88-13.364 21.538-38.69 8.172-56.572l-105.76-141.472c-13.367-17.882-38.697-21.536-56.577-8.173s-21.538 38.698-8.172 56.572l105.76 141.472c13.367 17.882 38.697 21.545 56.577 8.173zM806.446 150.266c17.882 13.371 43.21 9.709 56.572-8.164l105.772-141.472c13.364-17.882 9.709-43.21-8.173-56.581-17.874-13.364-43.21-9.709-56.572 8.173l-105.772 141.472c-13.364 17.874-9.709 43.21 8.173 56.572z" />
<glyph unicode="&#xe921;" glyph-name="map" d="M512.031 870.957c-147.532 0-267.13-119.598-267.13-267.13 0-71.238 44.722-165.347 107.313-244.752 30.601-38.822 63.611-71.696 93.971-94.415 32.113-24.032 54.78-31.847 65.846-31.847s33.734 7.815 65.846 31.847c30.359 22.72 63.371 55.594 93.972 94.415 62.591 79.404 107.312 173.514 107.312 244.752 0 147.532-119.598 267.13-267.13 267.13zM155.858 603.827c0 196.709 159.464 356.173 356.173 356.173s356.176-159.464 356.176-356.173c0-100.881-59.165-214.541-126.429-299.875-34.327-43.548-72.736-82.285-110.55-110.584-36.062-26.987-78.321-49.6-119.197-49.6s-83.136 22.612-119.197 49.6c-37.815 28.299-76.224 67.035-110.55 110.584-67.265 85.332-126.427 198.992-126.427 299.875zM512.031 663.19c-32.785 0-59.362-26.577-59.362-59.362s26.577-59.362 59.362-59.362c32.785 0 59.362 26.577 59.362 59.362s-26.577 59.362-59.362 59.362zM363.626 603.827c0 81.962 66.444 148.406 148.406 148.406s148.406-66.444 148.406-148.406c0-81.962-66.443-148.406-148.406-148.406s-148.406 66.444-148.406 148.406zM297.659 247.653c-48.448 0-94.393-21.52-125.408-58.738l-55.42-66.505c-32.22-38.668-4.726-97.366 45.603-97.366h699.13c50.329 0 77.826 58.698 45.601 97.365l-55.418 66.506c-31.015 37.219-76.961 58.738-125.408 58.738h-58.513v89.043h58.513c74.874 0 145.877-33.258 193.819-90.778l55.42-66.505c80.549-96.66 11.807-243.413-114.013-243.413h-699.13c-125.825 0-194.559 146.753-114.009 243.413l55.421 66.505c47.933 57.521 118.94 90.778 193.813 90.778h58.513v-89.043h-58.513z" />
<glyph unicode="&#xe922;" glyph-name="calendar" d="M47.157 660.209c0 126.503 102.551 229.054 229.053 229.054h471.58c126.504 0 229.053-102.551 229.053-229.054v-495.158c0-126.502-102.549-229.051-229.053-229.051h-471.58c-126.502 0-229.053 102.549-229.053 229.051v495.158zM276.209 808.421c-81.855 0-148.211-66.356-148.211-148.212v-495.158c0-81.853 66.356-148.208 148.211-148.208h471.58c81.855 0 148.211 66.356 148.211 148.208v495.158c0 81.855-66.356 148.212-148.211 148.212h-471.58zM47.157 589.473c0 22.324 18.098 40.421 40.421 40.421h848.844c22.321 0 40.421-18.098 40.421-40.421s-18.101-40.421-40.421-40.421h-848.844c-22.324 0-40.421 18.098-40.421 40.421zM323.37 960c22.324 0 40.421-18.098 40.421-40.421v-141.474c0-22.324-18.098-40.421-40.421-40.421s-40.421 18.098-40.421 40.421v141.474c0 22.324 18.097 40.421 40.421 40.421zM700.63 960c22.324 0 40.421-18.098 40.421-40.421v-141.474c0-22.324-18.097-40.421-40.421-40.421s-40.421 18.098-40.421 40.421v141.474c0 22.324 18.098 40.421 40.421 40.421zM559.159 306.524c0-26.044-21.113-47.157-47.157-47.157s-47.157 21.114-47.157 47.157c0 26.044 21.113 47.158 47.157 47.158s47.157-21.114 47.157-47.158zM747.791 306.524c0-26.044-21.114-47.157-47.158-47.157s-47.157 21.114-47.157 47.157c0 26.044 21.114 47.158 47.157 47.158s47.158-21.114 47.158-47.158zM370.525 306.524c0-26.044-21.114-47.157-47.157-47.157s-47.158 21.114-47.158 47.157c0 26.044 21.114 47.158 47.158 47.158s47.157-21.114 47.157-47.158z" />
<glyph unicode="&#xe923;" glyph-name="filter" d="M71.195 749.511c-61.033 90.475 5.075 210.489 113.496 210.489h654.617c108.424 0 174.531-120.014 113.5-210.489-0.358-0.525-0.723-1.040-1.114-1.543l-274.039-358.346c-19.014-28.504-29.133-61.861-29.133-95.942v-170.646c0-22.31-8.968-43.63-24.811-59.284l-104.522-103.298c-52.576-51.956-143.709-15.93-143.709 59.284v273.943c0 34.082-10.116 67.438-29.129 95.943l-274.044 358.346c-0.385 0.503-0.755 1.018-1.109 1.543zM123.772 786.023l274.017-358.311c0.385-0.503 0.755-1.018 1.109-1.543 26.445-39.203 40.581-85.303 40.581-132.491v-273.943c0-16.806 21.45-26.874 34.721-13.76l104.522 103.298c3.759 3.712 5.8 8.672 5.8 13.76v170.646c0 47.188 14.135 93.289 40.581 132.491 0.355 0.525 0.724 1.040 1.109 1.543l274.018 358.311c30.752 46.747-2.682 109.975-60.923 109.975h-654.617c-58.24 0-91.675-63.228-60.919-109.976z" />
<glyph unicode="&#xe924;" glyph-name="submitted" d="M0.001 447.998c0 256.093 207.605 463.696 463.698 463.696h96.606c13.581 0 27.027-0.585 40.325-1.731 15.95-1.374 27.764-15.416 26.384-31.364-1.374-15.947-15.418-27.76-31.364-26.384-11.64 1.003-23.434 1.517-35.345 1.517h-96.606c-224.083 0-405.735-181.653-405.735-405.735v-241.51c0-90.699 73.527-164.224 164.226-164.224h338.115c224.075 0 405.735 181.653 405.735 405.735 0 11.917-0.515 23.707-1.518 35.351-1.374 15.946 10.44 29.99 26.384 31.364s29.99-10.44 31.364-26.384c1.147-13.296 1.732-26.75 1.732-40.329 0-256.095-207.609-463.696-463.696-463.696h-338.115c-122.711 0-222.187 99.475-222.187 222.186v241.51zM850.115 853.733c-64.025 0-115.924-51.901-115.924-115.924s51.899-115.924 115.924-115.924c64.019 0 115.924 51.899 115.924 115.924s-51.906 115.924-115.924 115.924zM676.227 737.809c0 96.034 77.849 173.886 173.886 173.886 96.032 0 173.886-77.852 173.886-173.886 0-96.037-77.855-173.886-173.886-173.886-96.037 0-173.886 77.849-173.886 173.886zM289.813 544.604c0 16.003 12.972 28.982 28.982 28.982h193.206c16.009 0 28.982-12.977 28.982-28.982 0-16.009-12.972-28.982-28.982-28.982h-193.206c-16.009 0-28.982 12.972-28.982 28.982zM289.813 351.392c0 16.009 12.972 28.982 28.982 28.982h386.416c16.003 0 28.982-12.972 28.982-28.982 0-16.003-12.977-28.982-28.982-28.982h-386.416c-16.009 0-28.982 12.977-28.982 28.982z" />
<glyph unicode="&#xe925;" glyph-name="interview" d="M0 786.112v-483.019c0-96.032 77.852-173.887 173.887-173.887h309.131v-135.243h-115.925c-16.005 0-28.981-12.977-28.981-28.981 0-16.009 12.975-28.981 28.981-28.981h289.809c16.009 0 28.981 12.972 28.981 28.981 0 16.003-12.972 28.981-28.981 28.981h-115.922v135.243h309.132c96.032 0 173.887 77.855 173.887 173.887v483.019c0 96.035-77.855 173.887-173.887 173.887h-676.226c-96.035 0-173.887-77.852-173.887-173.887zM57.963 322.418h908.075v-19.325c0-64.025-51.899-115.925-115.925-115.925h-676.226c-64.024 0-115.925 51.899-115.925 115.925v19.325zM966.039 380.38h-908.075v405.732c0 64.024 51.901 115.925 115.925 115.925h676.226c64.025 0 115.925-51.901 115.925-115.925v-405.732z" />
<glyph unicode="&#xe926;" glyph-name="offer-letter" d="M48.301 737.812c0 122.712 99.477 222.188 222.188 222.188h483.023c122.713 0 222.187-99.477 222.187-222.188v-579.624c0-122.713-99.475-222.187-222.187-222.187h-483.023c-122.712 0-222.188 99.475-222.188 222.187v579.624zM270.489 902.038c-90.7 0-164.226-73.527-164.226-164.226v-579.624c0-90.7 73.527-164.225 164.226-164.225h483.023c90.7 0 164.225 73.525 164.225 164.225v579.624c0 90.7-73.525 164.226-164.225 164.226h-483.023zM507.725 576.893v-230.259c0-28.060-10.988-48.514-32.966-61.364-21.639-12.508-50.38-18.769-86.219-18.769-77.090 0-115.635 26.715-115.635 80.133v230.259c0 28.063 10.82 48.35 32.459 60.861 21.978 12.848 50.887 19.273 86.726 19.273 77.090 0 115.635-26.711 115.635-80.133zM313.479 581.965v-240.402c0-26.373 25.528-39.559 76.583-39.559 51.394 0 77.090 13.186 77.090 39.559v240.402c0 26.373-25.696 39.559-77.090 39.559-51.054 0-76.583-13.186-76.583-39.559zM694.407 309.614h82.162c6.764 0 10.143-5.919 10.143-17.754 0-11.83-3.379-17.748-10.143-17.748h-82.162c-29.080 0-49.703 6.933-61.875 20.791-12.172 14.201-18.258 37.027-18.258 68.471v276.915c0 7.776 6.764 11.665 20.287 11.665s20.287-3.889 20.287-11.665v-276.915c0-19.609 2.875-33.473 8.625-41.588 6.086-8.115 16.397-12.172 30.934-12.172z" />
<glyph unicode="&#xe927;" glyph-name="letter" d="M43.419 827.836c0 72.992 59.172 132.164 132.164 132.164h672.835c72.993 0 132.164-59.172 132.164-132.164v-728.31c0-91.539-90.804-155.357-176.931-124.354l-75.055 27.019c-14.663 5.282-30.797 4.657-45.003-1.74l-117.357-52.808c-34.493-15.523-73.979-15.523-108.471 0l-117.357 52.808c-14.207 6.397-30.343 7.022-45.001 1.74l-75.058-27.019c-86.127-31.003-176.93 32.815-176.93 124.354v728.31zM175.583 887.912c-33.178 0-60.074-26.896-60.074-60.074v-728.31c0-41.61 41.275-70.618 80.423-56.528l75.059 27.023c32.249 11.606 67.746 10.237 99.001-3.831l117.355-52.808c15.682-7.055 33.628-7.055 49.309 0l117.357 52.808c31.253 14.068 66.75 15.437 98.998 3.831l75.060-27.023c39.149-14.091 80.423 14.918 80.423 56.528v728.31c0 33.178-26.894 60.074-60.074 60.074h-672.835zM283.717 683.657c0 19.907 16.138 36.045 36.045 36.045h192.239c19.907 0 36.045-16.138 36.045-36.045s-16.138-36.045-36.045-36.045h-192.239c-19.907 0-36.045 16.138-36.045 36.045zM283.717 491.419c0 19.907 16.138 36.045 36.045 36.045h384.477c19.907 0 36.045-16.138 36.045-36.045s-16.138-36.045-36.045-36.045h-384.477c-19.907 0-36.045 16.138-36.045 36.045zM283.717 299.18c0 19.907 16.138 36.045 36.045 36.045h384.477c19.907 0 36.045-16.138 36.045-36.045s-16.138-36.045-36.045-36.045h-384.477c-19.907 0-36.045 16.138-36.045 36.045z" />
<glyph unicode="&#xe928;" glyph-name="menu-circle-vertical-01" d="M614.399 857.601c0-56.554-45.846-102.399-102.399-102.399s-102.399 45.846-102.399 102.399c0 56.554 45.846 102.399 102.399 102.399s102.399-45.846 102.399-102.399zM614.399 448c0-56.554-45.846-102.399-102.399-102.399s-102.399 45.846-102.399 102.399c0 56.554 45.846 102.399 102.399 102.399s102.399-45.846 102.399-102.399zM614.399 38.401c0-56.554-45.846-102.399-102.399-102.399s-102.399 45.846-102.399 102.399c0 56.554 45.846 102.399 102.399 102.399s102.399-45.846 102.399-102.399z" />
<glyph unicode="&#xe929;" glyph-name="list-view" d="M128.001 704.001c-35.346 0-64-28.654-64-64s28.654-64 64-64c35.346 0 64 28.654 64 64s-28.654 64-64 64zM0.001 640.001c0 70.693 57.308 128 128 128s128-57.308 128-128c0-70.693-57.308-128-128-128s-128 57.308-128 128zM384.001 736c0 17.673 14.327 32 32 32h288c17.67 0 32-14.327 32-32s-14.329-32-32-32h-288c-17.673 0-32 14.327-32 32zM384.001 544c0 17.673 14.327 32 32 32h576.001c17.67 0 32-14.327 32-32s-14.329-32-32-32h-576.001c-17.673 0-32 14.327-32 32zM128.001 320c-35.346 0-64-28.653-64-64s28.654-64 64-64c35.346 0 64 28.653 64 64s-28.654 64-64 64zM0.001 255.999c0 70.694 57.308 128 128 128s128-57.305 128-128c0-70.694-57.308-128-128-128s-128 57.305-128 128zM384.001 352c0 17.67 14.327 32 32 32h288c17.67 0 32-14.329 32-32s-14.329-32-32-32h-288c-17.673 0-32 14.329-32 32zM384.001 160c0 17.67 14.327 32 32 32h576.001c17.67 0 32-14.329 32-32s-14.329-32-32-32h-576.001c-17.673 0-32 14.329-32 32z" />
<glyph unicode="&#xe92a;" glyph-name="kf-test" d="M319.039 959.998c13.321 0 24.12-10.799 24.12-24.12v-48.24h337.68v48.24c0 13.321 10.801 24.12 24.12 24.12s24.12-10.799 24.12-24.12v-48.24h24.12c119.89 0 217.080-97.19 217.080-217.080v-120.6c0-13.319-10.801-24.12-24.12-24.12s-24.12 10.801-24.12 24.12v120.6c0 93.248-75.592 168.839-168.839 168.839h-24.12v-48.24c0-13.321-10.801-24.12-24.12-24.12s-24.12 10.799-24.12 24.12v48.24h-337.68v-48.24c0-13.321-10.799-24.12-24.12-24.12s-24.12 10.799-24.12 24.12v48.24h-24.12c-93.248 0-168.839-75.592-168.839-168.839v-506.519c0-93.248 75.592-168.839 168.839-168.839h96.479c13.321 0 24.12-10.801 24.12-24.12s-10.799-24.12-24.12-24.12h-96.479c-119.89 0-217.080 97.19-217.080 217.080v506.519c0 119.89 97.19 217.080 217.080 217.080h24.12v48.24c0 13.321 10.799 24.12 24.12 24.12zM791.265 398.645c40.951 40.951 107.348 40.951 148.299 0s40.951-107.348 0-148.299l-241.914-241.914c-8.722-8.722-19.527-15.075-31.389-18.456l-189.342-53.976 53.976 189.342c3.382 11.863 9.735 22.668 18.456 31.389l241.914 241.914zM905.454 364.534c-22.113 22.113-57.965 22.113-80.079 0l-241.914-241.914c-2.918-2.918-5.041-6.532-6.174-10.502l-30.208-105.959 105.959 30.208c3.97 1.134 7.583 3.256 10.502 6.174l241.914 241.914c22.113 22.113 22.113 57.965 0 80.079z" />
<glyph unicode="&#xe92b;" glyph-name="my-score-report" d="M295.008 862.476c11.295 55.644 60.49 97.523 119.467 97.523h195.049c58.977 0 108.174-41.882 119.467-97.523h26.819c121.187 0 219.428-98.241 219.428-219.428v-487.62c0-121.187-98.241-219.428-219.428-219.428h-487.62c-121.187 0-219.428 98.241-219.428 219.428v487.62c0 121.187 98.241 219.428 219.428 219.428h26.819zM295.008 813.714h-26.819c-94.257 0-170.667-76.411-170.667-170.667v-487.62c0-94.257 76.411-170.667 170.667-170.667h487.62c94.257 0 170.667 76.411 170.667 170.667v487.62c0 94.257-76.411 170.667-170.667 170.667h-26.819c-11.294-55.644-60.49-97.523-119.467-97.523h-195.049c-58.976 0-108.172 41.882-119.467 97.523zM414.475 911.237c-40.396 0-73.142-32.748-73.142-73.142s32.748-73.142 73.142-73.142h195.049c40.395 0 73.142 32.748 73.142 73.142s-32.749 73.142-73.142 73.142h-195.049zM292.57 545.522c0 13.466 10.915 24.381 24.381 24.381h390.095c13.462 0 24.381-10.915 24.381-24.381 0-13.462-10.917-24.381-24.381-24.381h-390.095c-13.466 0-24.381 10.917-24.381 24.381zM292.57 350.476c0 13.462 10.915 24.381 24.381 24.381h390.095c13.462 0 24.381-10.917 24.381-24.381s-10.917-24.381-24.381-24.381h-390.095c-13.466 0-24.381 10.917-24.381 24.381zM292.57 155.427c0 13.462 10.915 24.381 24.381 24.381h195.049c13.462 0 24.381-10.917 24.381-24.381s-10.917-24.381-24.381-24.381h-195.049c-13.466 0-24.381 10.917-24.381 24.381z" />
<glyph unicode="&#xe92c;" glyph-name="followed-prof" d="M504.914 259.368c-60.4-0.167-119.779-16.729-197.474-51.539-13.581-6.085-29.525-0.005-35.61 13.576s-0.008 29.524 13.574 35.608c81.069 36.32 148.338 56.050 219.359 56.25 70.806 0.195 142.686-19.036 232.998-55.895 13.781-5.621 20.394-21.347 14.768-35.128-5.621-13.781-21.347-20.394-35.128-14.768-87.557 35.727-151.869 52.062-212.486 51.896zM512 474.947c-74.413 0-134.737 60.323-134.737 134.737s60.323 134.737 134.737 134.737c74.413 0 134.737-60.323 134.737-134.737s-60.325-134.737-134.737-134.737zM323.369 609.684c0-104.179 84.453-188.631 188.631-188.631s188.631 84.453 188.631 188.631c0 104.179-84.453 188.631-188.631 188.631s-188.631-84.453-188.631-188.631zM0.001 448c0 282.77 229.23 511.999 511.999 511.999s511.999-229.23 511.999-511.999c0-39.068-4.382-77.145-12.687-113.75-3.293-14.514-17.731-23.611-32.245-20.318s-23.606 17.726-20.313 32.24c7.426 32.725 11.351 66.802 11.351 101.828 0 253.004-205.101 458.106-458.106 458.106s-458.106-205.1-458.106-458.106c0-253.003 205.1-458.106 458.106-458.106 35.026 0 69.104 3.923 101.828 11.351 14.514 3.293 28.947-5.799 32.24-20.313s-5.804-28.953-20.318-32.245c-36.605-8.305-74.682-12.687-113.75-12.687-282.77 0-511.999 229.23-511.999 511.999zM889.263 205.474c14.88 0 26.947-12.067 26.947-26.947v-215.579c0-14.88-12.067-26.947-26.947-26.947s-26.947 12.067-26.947 26.947v215.579c0 14.88 12.067 26.947 26.947 26.947zM1024.001 70.737c0-14.88-12.067-26.947-26.947-26.947h-215.579c-14.88 0-26.947 12.067-26.947 26.947s12.067 26.947 26.947 26.947h215.579c14.88 0 26.947-12.067 26.947-26.947z" />
<glyph unicode="&#xe92d;" glyph-name="upload-file" d="M173.020 911.237h487.62c67.327 0 121.904-54.578 121.904-121.906v-609.526h-316.952c-41.448 0-69.942-33.384-78.409-66.634-18.798-73.835-85.754-128.414-165.402-128.414-94.258 0-170.666 76.41-170.666 170.667v633.905c0 67.325 54.578 121.905 121.907 121.905l-0.003 0.002zM831.305 179.809v609.524c0 94.259-76.409 170.667-170.665 170.667h-487.62c-94.258 0-170.666-76.41-170.666-170.667v-633.904c0-121.189 98.24-219.429 219.43-219.429h585.146c102.477 0 188.493 70.226 212.655 165.147 11.655 45.774-28.237 78.663-66.369 78.663l-121.909-0.001zM359.712-15.237c36.2 29.296 62.888 69.877 74.726 116.385 4.821 18.944 18.738 29.899 31.154 29.899h487.617c6.901 0 12.682-2.871 16.073-6.528 3.082-3.329 4.134-7.056 3.042-11.342-18.795-73.836-85.754-128.414-165.4-128.414h-447.212zM452.263 373.277v238.062l58.694-56.944c10.001-9.7 26.21-9.7 36.211 0 9.995 9.697 9.995 25.422 0 35.122l-66.196 64.218c-29.992 29.094-78.623 29.094-108.617 0l-66.193-64.218c-9.998-9.697-9.997-25.422 0-35.122 9.995-9.7 26.206-9.7 36.206 0l58.697 56.944v-238.062c0-13.712 11.465-24.833 25.6-24.833 14.134 0 25.599 11.119 25.599 24.833z" />
<glyph unicode="&#xe92e;" glyph-name="recommended-internship" d="M512-15.238c-255.84 0-463.238 207.399-463.238 463.238s207.399 463.238 463.238 463.238c255.839 0 463.238-207.399 463.238-463.238s-207.399-463.238-463.238-463.238zM512-64c282.77 0 512 229.23 512 512s-229.23 512-512 512c-282.77 0-512-229.23-512-512s229.23-512 512-512zM512 179.81c-148.118 0-268.19 120.071-268.19 268.19 0 148.118 120.073 268.19 268.19 268.19 148.119 0 268.19-120.073 268.19-268.19 0-148.119-120.071-268.19-268.19-268.19zM512 131.048c175.050 0 316.952 141.902 316.952 316.952 0 175.048-141.902 316.952-316.952 316.952-175.048 0-316.952-141.904-316.952-316.952 0-175.050 141.904-316.952 316.952-316.952zM633.905 448c0-67.326-54.579-121.905-121.905-121.905s-121.905 54.579-121.905 121.905c0 67.327 54.579 121.905 121.905 121.905s121.905-54.578 121.905-121.905zM1016.915 941.118c9.489-9.553 9.44-24.99-0.112-34.48l-477.52-474.35c-9.552-9.494-24.99-9.44-34.48 0.112s-9.44 24.99 0.112 34.48l477.52 474.353c9.552 9.49 24.99 9.438 34.48-0.115z" />
<glyph unicode="&#xe92f;" glyph-name="my-application" d="M0.001 809.413c0 83.167 67.421 150.588 150.588 150.588h120.471c83.167 0 150.588-67.421 150.588-150.588v-120.471c0-83.167-67.421-150.588-150.588-150.588h-120.471c-83.167 0-150.588 67.421-150.588 150.588v120.471zM150.59 899.766c-49.9 0-90.353-40.452-90.353-90.353v-120.471c0-49.9 40.452-90.353 90.353-90.353h120.471c49.9 0 90.353 40.452 90.353 90.353v120.471c0 49.9-40.452 90.353-90.353 90.353h-120.471zM602.354 809.413c0 83.167 67.422 150.588 150.588 150.588h120.471c83.166 0 150.588-67.421 150.588-150.588v-120.471c0-83.167-67.422-150.588-150.588-150.588h-120.471c-83.166 0-150.588 67.421-150.588 150.588v120.471zM752.943 899.766c-49.899 0-90.353-40.452-90.353-90.353v-120.471c0-49.9 40.454-90.353 90.353-90.353h120.471c49.899 0 90.353 40.452 90.353 90.353v120.471c0 49.9-40.454 90.353-90.353 90.353h-120.471zM0.001 207.059c0 83.166 67.421 150.588 150.588 150.588h120.471c83.167 0 150.588-67.422 150.588-150.588v-120.471c0-83.166-67.421-150.588-150.588-150.588h-120.471c-83.167 0-150.588 67.422-150.588 150.588v120.471zM150.59 297.413c-49.9 0-90.353-40.454-90.353-90.353v-120.471c0-49.899 40.452-90.353 90.353-90.353h120.471c49.9 0 90.353 40.454 90.353 90.353v120.471c0 49.899-40.452 90.353-90.353 90.353h-120.471zM602.354 207.059c0 83.166 67.422 150.588 150.588 150.588h120.471c83.166 0 150.588-67.422 150.588-150.588v-120.471c0-83.166-67.422-150.588-150.588-150.588h-120.471c-83.166 0-150.588 67.422-150.588 150.588v120.471zM752.943 297.413c-49.899 0-90.353-40.454-90.353-90.353v-120.471c0-49.899 40.454-90.353 90.353-90.353h120.471c49.899 0 90.353 40.454 90.353 90.353v120.471c0 49.899-40.454 90.353-90.353 90.353h-120.471z" />
<glyph unicode="&#xe930;" glyph-name="my-profile" d="M257.285 260.861c-65.406-32.703-95.602-72.898-95.602-109.282s30.195-76.579 95.602-109.282c63.795-31.895 153.813-52.402 254.715-52.402s190.917 20.507 254.713 52.402c65.406 32.703 95.604 72.898 95.604 109.282s-30.197 76.579-95.604 109.282c-63.796 31.895-153.81 52.402-254.713 52.402s-190.92-20.507-254.715-52.402zM233.183 309.064c72.748 36.374 171.362 58.093 278.817 58.093s206.067-21.72 278.82-58.093c71.136-35.571 125.391-89.692 125.391-157.486s-54.257-121.915-125.391-157.486c-72.753-36.374-171.364-58.093-278.82-58.093s-206.069 21.72-278.817 58.093c-71.136 35.571-125.394 89.692-125.394 157.486s54.258 121.915 125.394 157.486zM512 906.106c-104.179 0-188.632-84.454-188.632-188.632s84.454-188.632 188.632-188.632c104.179 0 188.632 84.454 188.632 188.632s-84.454 188.632-188.632 188.632zM269.473 717.473c0 133.944 108.583 242.527 242.527 242.527s242.527-108.583 242.527-242.527c0-133.944-108.583-242.527-242.527-242.527s-242.527 108.583-242.527 242.527z" />
<glyph unicode="&#xe931;" glyph-name="dashboard" d="M609.801 853.393c-56.939 46.887-138.658 46.887-195.597 0l-238.139-196.093c-36.017-29.657-56.992-74.143-56.992-121.205v-372.282c0-86.64 69.579-156.372 154.791-156.372h476.279c85.211 0 154.791 69.732 154.791 156.372v372.282c0 47.062-20.976 91.548-56.991 121.205l-238.139 196.093zM368.789 908.544c83.319 68.607 203.104 68.608 286.425 0l238.139-196.093c52.59-43.306 83.020-108.067 83.020-176.356v-372.282c0-125.542-101.010-227.814-226.233-227.814h-476.279c-125.222 0-226.233 102.271-226.233 227.814v372.282c0 68.288 30.429 133.050 83.021 176.356l238.139 196.093zM285.769 448c0 19.727 15.992 35.721 35.721 35.721h381.024c19.727 0 35.721-15.993 35.721-35.721s-15.993-35.721-35.721-35.721h-381.024c-19.728 0-35.721 15.993-35.721 35.721zM285.769 257.488c0 19.727 15.992 35.721 35.721 35.721h381.024c19.727 0 35.721-15.993 35.721-35.721s-15.993-35.721-35.721-35.721h-381.024c-19.728 0-35.721 15.993-35.721 35.721z" />
<glyph unicode="&#xe932;" glyph-name="edit" d="M219.429 911.237c-94.256 0-170.666-76.41-170.666-170.666v-585.142c0-94.256 76.41-170.666 170.666-170.666h585.142c94.256 0 170.666 76.41 170.666 170.666v292.571c0 13.463 10.918 24.381 24.381 24.381s24.381-10.918 24.381-24.381v-292.571c0-121.187-98.24-219.429-219.429-219.429h-585.142c-121.186 0-219.429 98.24-219.429 219.429v585.142c0 121.186 98.241 219.429 219.429 219.429h292.571c13.463 0 24.381-10.916 24.381-24.381s-10.918-24.381-24.381-24.381h-292.571zM744.258 923.968c48.041 48.040 125.928 48.040 173.967 0l69.744-69.743c48.041-48.041 48.041-125.928 0-173.967l-395.215-395.215c-18.823-18.823-43.237-31.033-69.588-34.797l-146.462-20.919c-48.638-6.949-90.327 34.738-83.379 83.378l20.923 146.461c3.764 26.351 15.973 50.767 34.793 69.588l395.215 395.216zM883.746 889.489c-28.999 28.997-76.010 28.997-105.009 0l-61.669-61.668c0.941-6.336 2.814-15.551 6.534-26.716 7.665-22.992 23.24-54.474 55.135-86.368s63.376-47.472 86.367-55.136c11.167-3.722 20.382-5.593 26.716-6.531l61.669 61.667c28.999 28.997 28.999 76.011 0 105.008l-69.744 69.744zM851.499 612.745c-0.6 0.195-1.205 0.393-1.813 0.596-29.315 9.772-67.579 29.065-105.428 66.916s-57.144 76.112-66.916 105.428c-0.204 0.608-0.4 1.212-0.595 1.812l-293.224-293.223c-11.36-11.361-18.73-26.097-21.002-42.003l-20.923-146.461c-2.351-16.457 11.754-30.564 28.211-28.213l146.463 20.924c15.906 2.272 30.642 9.64 42.003 21.002l293.224 293.224z" />
<glyph unicode="&#xe933;" glyph-name="card-view" d="M279.273 727.273c0 128.532 104.195 232.727 232.727 232.727h279.273c128.534 0 232.727-104.195 232.727-232.727v-279.273c0-128.534-104.194-232.727-232.727-232.727h-46.546v-46.546c0-128.534-104.194-232.727-232.727-232.727h-279.273c-128.532 0-232.727 104.194-232.727 232.727v279.273c0 128.532 104.195 232.727 232.727 232.727h46.546v46.546zM372.364 680.727h139.636c128.534 0 232.727-104.195 232.727-232.727v-139.636h46.546c77.116 0 139.636 62.52 139.636 139.636v279.273c0 77.119-62.52 139.636-139.636 139.636h-279.273c-77.119 0-139.636-62.518-139.636-139.636v-46.546zM232.727 587.636c-77.119 0-139.636-62.518-139.636-139.636v-279.273c0-77.116 62.518-139.636 139.636-139.636h279.273c77.116 0 139.636 62.52 139.636 139.636v279.273c0 77.119-62.52 139.636-139.636 139.636h-279.273z" />
<glyph unicode="&#xe934;" glyph-name="download" d="M0 185.434c0-137.758 111.676-249.434 249.436-249.434h525.131c137.758 0 249.434 111.675 249.434 249.434v210.054c0 137.759-111.675 249.436-249.434 249.436h-26.259c-21.753 0-39.385-17.633-39.385-39.385s17.632-39.385 39.385-39.385h26.259c94.252 0 170.664-76.41 170.664-170.667v-210.054c0-94.252-76.412-170.664-170.664-170.664h-525.131c-94.257 0-170.667 76.412-170.667 170.664v210.054c0 94.257 76.41 170.667 170.667 170.667h26.257c21.752 0 39.385 17.633 39.385 39.385s-17.633 39.385-39.385 39.385h-26.257c-137.759 0-249.436-111.676-249.436-249.436v-210.054zM326.612 420.151c-15.38 15.38-15.38 40.318 0 55.698s40.318 15.38 55.698 0l90.305-90.305v535.071c0 21.752 17.633 39.384 39.385 39.384s39.385-17.633 39.385-39.384v-535.071l90.307 90.305c15.376 15.38 40.318 15.38 55.693 0 15.383-15.38 15.383-40.318 0-55.698l-157.536-157.536c-15.38-15.383-40.318-15.383-55.698 0l-157.538 157.536z" />
<glyph unicode="&#xe935;" glyph-name="rejected-applicants" d="M149.496 260.861c-65.406-32.703-95.602-72.898-95.602-109.282s30.195-76.579 95.602-109.282c63.795-31.895 153.812-52.402 254.715-52.402s190.916 20.507 254.712 52.402c65.406 32.703 95.603 72.898 95.603 109.282s-30.197 76.579-95.603 109.282c-63.796 31.895-153.81 52.402-254.712 52.402s-190.92-20.507-254.715-52.402zM125.394 309.065c72.748 36.374 171.361 58.093 278.817 58.093s206.067-21.72 278.82-58.093c71.136-35.571 125.391-89.692 125.391-157.486s-54.256-121.915-125.391-157.486c-72.753-36.374-171.364-58.093-278.82-58.093s-206.069 21.72-278.817 58.093c-71.136 35.571-125.394 89.692-125.394 157.486s54.258 121.915 125.394 157.486zM404.211 906.106c-104.179 0-188.631-84.454-188.631-188.631s84.454-188.631 188.631-188.631c104.179 0 188.631 84.454 188.631 188.631s-84.454 188.631-188.631 188.631zM161.684 717.473c0 133.944 108.582 242.527 242.527 242.527s242.527-108.582 242.527-242.527c0-133.944-108.582-242.527-242.527-242.527s-242.527 108.582-242.527 242.527zM762.416 628.739c10.526 10.525 27.589 10.525 38.115 0l88.732-88.736 88.732 88.736c10.526 10.525 27.589 10.525 38.115 0 10.521-10.523 10.521-27.586 0-38.11l-88.738-88.736 88.738-88.732c10.521-10.526 10.521-27.589 0-38.115-10.526-10.521-27.589-10.521-38.115 0l-88.732 88.738-88.732-88.738c-10.526-10.521-27.589-10.521-38.115 0-10.521 10.526-10.521 27.589 0 38.115l88.738 88.732-88.738 88.736c-10.521 10.523-10.521 27.586 0 38.11z" />
<glyph unicode="&#xe936;" glyph-name="group-applicants" d="M259.53 258.653c-11.768-11.591-15.721-21.743-15.721-30.081s3.953-18.49 15.721-30.081c11.855-11.679 30.258-23.318 54.968-33.611 49.312-20.549 119.127-33.831 197.502-33.831s148.192 13.282 197.501 33.831c24.712 10.294 43.115 21.933 54.969 33.611 11.766 11.591 15.721 21.743 15.721 30.081s-3.954 18.49-15.721 30.081c-11.854 11.679-30.257 23.318-54.969 33.611-49.309 20.549-119.126 33.831-197.501 33.831s-148.191-13.282-197.502-33.831c-24.709-10.294-43.113-21.933-54.968-33.611zM295.743 337.277c56.578 23.576 133.049 37.581 216.257 37.581s159.681-14.005 216.254-37.581c28.238-11.766 52.682-26.394 70.437-43.886 17.842-17.574 30.262-39.493 30.262-64.819s-12.419-47.246-30.262-64.819c-17.754-17.491-42.199-32.12-70.437-43.886-56.574-23.576-133.047-37.581-216.254-37.581s-159.678 14.005-216.257 37.581c-28.237 11.766-52.678 26.394-70.433 43.886-17.841 17.574-30.263 39.493-30.263 64.819s12.421 47.246 30.263 64.819c17.755 17.491 42.197 32.12 70.433 43.886zM512 764.952c-67.326 0-121.905-54.578-121.905-121.905s54.579-121.905 121.905-121.905c67.326 0 121.905 54.578 121.905 121.905s-54.579 121.905-121.905 121.905zM341.334 643.048c0 94.257 76.41 170.666 170.666 170.666s170.666-76.41 170.666-170.666c0-94.257-76.41-170.666-170.666-170.666s-170.666 76.41-170.666 170.666zM218.127 372.882c-50.038-4.008-95.418-13.946-131.391-28.33-23.76-9.509-44.625-21.435-59.947-35.923-15.375-14.541-26.789-33.349-26.789-55.677s11.414-41.136 26.789-55.677c15.323-14.487 36.187-26.415 59.947-35.923 19.683-7.87 42.183-14.409 66.72-19.373-13.77 18.013-23.374 37.273-28.13 57.398-7.229 2.263-14.070 4.686-20.481 7.251-20.36 8.143-35.201 17.232-44.553 26.078-9.301 8.797-11.531 15.642-11.531 20.246s2.231 11.449 11.531 20.246c9.352 8.846 24.192 17.935 44.553 26.078 13.968 5.589 29.969 10.503 47.599 14.551 16.269 21.685 38.555 41.589 65.682 59.056zM898.672 199.377c-4.754-20.125-14.355-39.385-28.126-57.398 24.537 4.963 47.035 11.503 66.721 19.373 23.757 9.509 44.622 21.435 59.947 35.923 15.375 14.541 26.785 33.349 26.785 55.677s-11.41 41.136-26.785 55.677c-15.326 14.487-36.191 26.415-59.947 35.923-35.976 14.385-81.354 24.322-131.394 28.33 27.126-17.466 49.415-37.371 65.682-59.056 17.632-4.047 33.631-8.962 47.601-14.551 20.358-8.143 35.201-17.232 44.554-26.078 9.299-8.797 11.527-15.642 11.527-20.246s-2.229-11.449-11.527-20.246c-9.352-8.846-24.195-17.935-44.554-26.078-6.413-2.565-13.254-4.989-20.485-7.251zM726.586 527.214c-7.861-14.536-17.159-28.184-27.702-40.755 16.993-8.986 36.362-14.078 56.925-14.078 67.326 0 121.905 54.579 121.905 121.905s-54.579 121.905-121.905 121.905c-3.711 0-7.383-0.166-11.010-0.49 4.832-15.487 8.158-31.638 9.806-48.281 0.4 0.007 0.805 0.010 1.205 0.010 40.394 0 73.143-32.747 73.143-73.143s-32.749-73.143-73.143-73.143c-10.386 0-20.271 2.165-29.223 6.071zM279.199 715.699c-3.626 0.325-7.297 0.49-11.008 0.49-67.326 0-121.905-54.578-121.905-121.905s54.578-121.905 121.905-121.905c20.56 0 39.933 5.090 56.925 14.078-10.543 12.57-19.84 26.219-27.704 40.755-8.95-3.906-18.832-6.071-29.221-6.071-40.395 0-73.143 32.747-73.143 73.143s32.747 73.143 73.143 73.143c0.402 0 0.802-0.003 1.203-0.010 1.651 16.643 4.977 32.794 9.805 48.281z" />
<glyph unicode="&#xe937;" glyph-name="shortlisted-applicants" d="M138.558 274.555c-60.62-30.31-88.607-67.564-88.607-101.286s27.985-70.976 88.607-101.286c59.127-29.561 142.558-48.568 236.077-48.568s176.947 19.007 236.075 48.568c60.62 30.31 88.608 67.564 88.608 101.286s-27.988 70.976-88.608 101.286c-59.128 29.561-142.555 48.568-236.075 48.568s-176.95-19.007-236.077-48.568zM116.219 319.231c67.425 33.712 158.823 53.842 258.416 53.842s190.988-20.131 258.418-53.842c65.931-32.968 116.216-83.129 116.216-145.962s-50.286-112.994-116.216-145.962c-67.429-33.712-158.825-53.842-258.418-53.842s-190.991 20.131-258.416 53.842c-65.931 32.968-116.219 83.129-116.219 145.962s50.288 112.994 116.219 145.962zM374.635 872.586c-96.556 0-174.829-78.274-174.829-174.829s78.274-174.829 174.829-174.829c96.556 0 174.829 78.274 174.829 174.829s-78.274 174.829-174.829 174.829zM149.854 697.756c0 124.143 100.637 224.78 224.78 224.78s224.78-100.637 224.78-224.78c0-124.143-100.637-224.78-224.78-224.78s-224.78 100.637-224.78 224.78zM1016.687 640.489c9.751-9.753 9.751-25.568 0-35.321l-192.492-192.489-117.565 117.56c-9.751 9.756-9.751 25.57 0 35.323 9.756 9.755 25.57 9.755 35.326 0l82.239-82.243 157.166 157.17c9.756 9.755 25.57 9.755 35.326 0z" />
<glyph unicode="&#xe938;" glyph-name="applicants" d="M149.496 260.861c-65.406-32.703-95.602-72.898-95.602-109.282s30.195-76.579 95.602-109.282c63.795-31.895 153.812-52.402 254.714-52.402s190.916 20.507 254.712 52.402c65.406 32.703 95.603 72.898 95.603 109.282s-30.197 76.579-95.603 109.282c-63.796 31.895-153.81 52.402-254.712 52.402s-190.92-20.507-254.714-52.402zM125.394 309.065c72.748 36.374 171.361 58.093 278.817 58.093s206.066-21.72 278.819-58.093c71.136-35.571 125.391-89.692 125.391-157.485s-54.256-121.915-125.391-157.485c-72.753-36.374-171.364-58.093-278.819-58.093s-206.069 21.72-278.817 58.093c-71.136 35.571-125.394 89.692-125.394 157.485s54.258 121.915 125.394 157.485zM404.21 906.105c-104.179 0-188.631-84.453-188.631-188.631s84.453-188.631 188.631-188.631c104.179 0 188.631 84.453 188.631 188.631s-84.453 188.631-188.631 188.631zM161.684 717.473c0 133.944 108.582 242.526 242.526 242.526s242.526-108.582 242.526-242.526c0-133.944-108.582-242.526-242.526-242.526s-242.526 108.582-242.526 242.526zM667.006 529.003c-12.402-17.257-26.457-33.248-41.941-47.73 15.51-4.128 31.809-6.327 48.619-6.327 104.179 0 188.631 84.453 188.631 188.631 0 95.584-71.098 174.563-163.29 186.944 8.645-19.127 15.484-39.243 20.296-60.134 51.949-18.7 89.099-68.418 89.099-126.811 0-74.413-60.325-134.737-134.737-134.737-2.242 0-4.468 0.054-6.677 0.162zM888.384 133.605c-2.128-21.768-8.101-42.901-17.51-63.149 14.811 4.468 28.801 9.437 41.833 14.87 31.205 13.004 58.223 29.173 77.846 48.505 19.72 19.424 33.447 43.65 33.447 71.642s-13.727 52.219-33.447 71.642c-19.623 19.333-46.641 35.501-77.846 48.505-46.646 19.435-105.52 32.984-170.593 38.616 33.566-19.914 62.427-42.777 85.472-67.896 23.827-5.67 45.476-12.585 64.388-20.469 27.313-11.377 47.654-24.241 60.755-37.149 13.011-12.811 17.376-24.032 17.376-33.248s-4.365-20.437-17.376-33.248c-13.101-12.908-33.442-25.772-60.755-37.149-1.186-0.496-2.382-0.987-3.59-1.472z" />
<glyph unicode="&#xe939;" glyph-name="applicants-pending" d="M97.524 789.334v-682.668c0-94.257 76.41-170.666 170.666-170.666h487.62c94.257 0 170.666 76.41 170.666 170.666v682.668c0 94.257-76.41 170.666-170.666 170.666h-487.62c-94.257 0-170.666-76.41-170.666-170.666zM146.286 106.666c0 67.326 54.578 121.905 121.905 121.905h609.525v-121.905c0-67.326-54.579-121.905-121.905-121.905h-487.62c-67.326 0-121.905 54.579-121.905 121.905zM877.716 277.334h-609.525c-47.754 0-90.928-19.613-121.905-51.224v563.226c0 67.326 54.578 121.905 121.905 121.905h487.62c67.326 0 121.905-54.578 121.905-121.905v-512.002zM512.001 716.191c40.394 0 73.143-32.747 73.143-73.143s-32.749-73.143-73.143-73.143c-13.463 0-24.381-10.915-24.381-24.381 0-13.463 10.918-24.381 24.381-24.381 67.326 0 121.905 54.578 121.905 121.905s-54.579 121.905-121.905 121.905c-67.326 0-121.905-54.578-121.905-121.905 0-13.465 10.915-24.381 24.381-24.381 13.463 0 24.381 10.915 24.381 24.381 0 40.395 32.749 73.143 73.143 73.143zM560.763 399.238c0-26.931-21.831-48.762-48.762-48.762s-48.762 21.831-48.762 48.762c0 26.931 21.831 48.762 48.762 48.762s48.762-21.831 48.762-48.762z" />
<glyph unicode="&#xe93a;" glyph-name="view-2" d="M473.6 960h-268.8c-113.108 0-204.8-91.692-204.8-204.8v-614.4c0-113.106 91.692-204.8 204.8-204.8h268.8v1024zM550.4-64h268.8c113.106 0 204.8 91.694 204.8 204.8v614.4c0 113.108-91.694 204.8-204.8 204.8h-268.8v-1024z" />
<glyph unicode="&#xe93b;" glyph-name="setting" d="M319.189 822.449c0 78.333 66.567 137.494 143.167 137.494h99.287c76.598 0 143.168-59.161 143.168-137.494 0-25.872 27.681-42.322 50.404-29.951l5.278 2.873c67.009 36.479 153.823 15.766 194.029-49.89l49.644-81.071c41.212-67.302 15.598-152.11-52.786-189.334-21.455-11.678-21.455-42.477 0-54.154 68.384-37.223 93.998-122.030 52.786-189.331l-49.644-81.074c-40.207-65.651-127.020-86.37-194.029-49.89l-5.278 2.873c-22.725 12.369-50.404-4.078-50.404-29.95 0-78.33-66.57-137.494-143.168-137.494h-99.287c-76.6 0-143.167 59.164-143.167 137.494 0 25.872-27.682 42.319-50.405 29.95l-5.278-2.873c-67.013-36.48-153.826-15.768-194.029 49.89l-49.643 81.074c-41.212 67.301-15.598 152.109 52.783 189.331 21.454 11.678 21.454 42.477 0 54.154-68.383 37.223-93.996 122.031-52.783 189.334l49.643 81.071c40.203 65.655 127.016 86.368 194.029 49.89l5.278-2.873c22.723-12.37 50.405 4.078 50.405 29.95zM462.356 872.18c-33.068 0-55.406-24.662-55.406-49.732 0-92.456-98.921-151.235-180.124-107.032l-5.278 2.873c-27.963 15.223-62.595 5.253-77.226-18.64l-49.643-81.071c-13.622-22.246-6.695-51.944 19.899-66.419 82.523-44.922 82.523-163.4 0-208.323-26.595-14.475-33.521-44.173-19.899-66.418l49.643-81.074c14.63-23.889 49.263-33.858 77.226-18.634l5.278 2.873c81.203 44.203 180.124-14.581 180.124-107.034 0-25.071 22.338-49.732 55.406-49.732h99.287c33.068 0 55.406 24.661 55.406 49.732 0 92.454 98.92 151.237 180.123 107.034l5.278-2.873c27.967-15.224 62.597-5.253 77.23 18.634l49.637 81.074c13.626 22.245 6.699 51.943-19.899 66.418-82.519 44.922-82.519 163.4 0 208.323 26.597 14.474 33.525 44.173 19.899 66.419l-49.637 81.071c-14.633 23.893-49.263 33.861-77.23 18.64l-5.278-2.873c-81.203-44.204-180.123 14.577-180.123 107.032 0 25.068-22.338 49.732-55.406 49.732h-99.287zM512 579.641c-72.702 0-131.643-58.94-131.643-131.643s58.94-131.643 131.643-131.643c72.702 0 131.643 58.94 131.643 131.643s-58.94 131.643-131.643 131.643zM292.596 447.999c0 121.174 98.23 219.404 219.404 219.404s219.404-98.23 219.404-219.404c0-121.176-98.229-219.404-219.404-219.404s-219.404 98.229-219.404 219.404z" />
<glyph unicode="&#xe93c;" glyph-name="call-end" d="M66.344 347.532l47.65-47.65c16.501-16.501 41.385-21.293 62.835-12.101l82.444 35.333c27.281 11.692 41.046 42.344 31.66 70.501l-5.124 15.373c-3.538 10.615 0.479 22.296 9.79 28.503l13.751-20.656c-13.765 20.647-13.758 20.652-13.751 20.656l0.442 0.291 0.962 0.62c0.808 0.516 1.947 1.231 3.404 2.117 2.912 1.773 7.097 4.232 12.442 7.147 10.679 5.825 26.047 13.503 45.187 21.159 38.165 15.265 92.023 30.725 153.967 30.725 61.941 0 115.804-15.46 153.968-30.725 19.137-7.656 34.507-15.334 45.187-21.159 5.345-2.915 9.529-5.374 12.442-7.147 1.454-0.886 2.59-1.601 3.399-2.117l0.963-0.62 0.293-0.191 0.164-0.108c0.005-0.004 0 0-13.767-20.647l13.767 20.647c9.31-6.207 13.315-17.878 9.777-28.494l-5.127-15.373c-9.385-28.158 4.377-58.809 31.658-70.501l82.448-35.333c21.449-9.192 46.334-4.4 62.835 12.101l47.648 47.65c22.288 22.287 22.288 58.42 0 80.707-246.129 246.129-645.183 246.129-891.312 0-22.287-22.287-22.287-58.42 0-80.707zM339.207 405.499c15.101-51.573-10.608-106.667-60.385-128.001l-82.444-35.333c-40.101-17.186-86.626-8.227-117.477 22.624l-47.65 47.65c-41.668 41.668-41.668 109.225 0 150.893 265.51 265.51 695.989 265.51 961.498 0 41.668-41.668 41.668-109.225 0-150.893l-47.648-47.65c-30.854-30.85-77.376-39.81-117.481-22.624l-82.443 35.333c-49.778 21.334-75.485 76.427-60.383 128.001-9.102 4.855-21.742 11.042-37.256 17.248-34.214 13.684-81.679 27.175-135.536 27.175s-101.324-13.491-135.535-27.175c-15.513-6.206-28.157-12.393-37.258-17.248z" />
<glyph unicode="&#xe93d;" glyph-name="message" d="M0 501.582c0 226.453 181.427 410.79 406.16 410.79h52.92c160.968 0 296.341-108.74 339.13-256.962 133.911-67.231 225.79-206.924 225.79-368.154v-160.744c0-78.491-62.964-142.884-141.559-142.884h-317.521c-145.103 0-269.415 88.387-323.835 214.326h-99.522c-78.599 0-141.56 64.393-141.56 142.884v160.744zM320.808 197.955c48.808-85.573 140.014-142.884 244.112-142.884h317.521c38.307 0 70.117 31.567 70.117 71.442v160.744c0 114.021-55.434 214.789-140.336 276.297 0.066-2.789 0.1-5.586 0.1-8.39 0-196.861-157.734-357.209-353.242-357.209h-138.273zM406.16 840.931c-184.442 0-334.718-151.511-334.718-339.349v-160.744c0-39.874 31.811-71.442 70.118-71.442h317.52c155.215 0 281.8 127.524 281.8 285.767 0 23.081-2.696 45.477-7.758 66.902-29.754 125.848-141.45 218.866-274.042 218.866h-52.92z" />
<glyph unicode="&#xe93e;" glyph-name="camera" d="M0 638.512c0 124.945 101.288 226.233 226.233 226.233h333.395c116.383 0 212.24-87.88 224.832-200.902l13.012 13.881c81.206 86.622 226.528 29.155 226.528-89.58v-280.283c0-118.737-145.323-176.204-226.528-89.584l-13.012 13.883c-12.593-113.026-108.449-200.904-224.832-200.904h-333.395c-124.945 0-226.233 101.286-226.233 226.233v381.024zM714.419 638.512c0 85.489-69.303 154.791-154.791 154.791h-333.395c-85.489 0-154.791-69.302-154.791-154.791v-381.024c0-85.488 69.302-154.791 154.791-154.791h333.395c85.488 0 154.791 69.303 154.791 154.791v381.024zM785.861 335.117l63.731-67.979c36.911-39.374 102.967-13.251 102.967 40.722v280.283c0 53.971-66.056 80.092-102.967 40.718l-63.731-67.979v-225.765zM464.372 602.791c-32.881 0-59.535-26.655-59.535-59.535s26.655-59.535 59.535-59.535c32.882 0 59.535 26.655 59.535 59.535s-26.652 59.535-59.535 59.535zM333.395 543.255c0 72.336 58.64 130.977 130.977 130.977s130.977-58.64 130.977-130.977-58.639-130.977-130.977-130.977c-72.336 0-130.977 58.64-130.977 130.977z" />
<glyph unicode="&#xe93f;" glyph-name="view-1" d="M227.557 846.222v-56.889h568.888v56.889c0 62.838-50.938 113.778-113.778 113.778h-341.333c-62.838 0-113.778-50.94-113.778-113.778zM853.333 704c94.259 0 170.667-76.41 170.667-170.667v-170.667c0-94.259-76.407-170.667-170.667-170.667h-682.666c-94.256 0-170.667 76.407-170.667 170.667v170.667c0 94.257 76.41 170.667 170.667 170.667h682.666zM796.444 106.667v-56.889c0-62.839-50.938-113.778-113.778-113.778h-341.333c-62.838 0-113.778 50.938-113.778 113.778v56.889h568.888z" />
<glyph unicode="&#xe940;" glyph-name="microphone" d="M512.001 960c-113.108 0-204.801-91.692-204.801-204.801v-307.2c0-113.106 91.692-204.801 204.801-204.801s204.801 91.695 204.801 204.801v307.2c0 113.108-91.692 204.801-204.801 204.801zM204.801 537.599c21.208 0 38.4-17.193 38.4-38.4v-51.2c0-148.454 120.346-268.8 268.8-268.8s268.8 120.346 268.8 268.8v51.2c0 21.208 17.193 38.4 38.4 38.4s38.4-17.193 38.4-38.4v-51.2c0-177.889-134.4-324.388-307.2-343.491v-91.709h115.2c21.207 0 38.4-17.193 38.4-38.4s-17.193-38.4-38.4-38.4h-307.2c-21.208 0-38.4 17.193-38.4 38.4s17.193 38.4 38.4 38.4h115.2v91.709c-172.798 19.103-307.2 165.602-307.2 343.491v51.2c0 21.208 17.193 38.4 38.4 38.4z" />
<glyph unicode="&#xe941;" glyph-name="back-arrow" d="M364.232 839.451c-19.328 25.771-55.889 30.995-81.661 11.666l-259.24-194.43c-14.688-11.016-23.332-28.303-23.332-46.663s8.644-35.647 23.332-46.663l259.24-194.43c25.771-19.329 62.333-14.106 81.661 11.666s14.106 62.332-11.666 81.661l-119.25 89.438h473.114c110.96 0 200.911-89.952 200.911-200.911s-89.952-200.912-200.911-200.912h-648.102c-32.214 0-58.329-26.114-58.329-58.326s26.115-58.329 58.329-58.329h648.102c175.387 0 317.569 142.178 317.569 317.568s-142.183 317.569-317.569 317.569h-473.114l119.25 89.438c25.771 19.329 30.995 55.889 11.666 81.661z" />
<glyph unicode="&#xe942;" glyph-name="info-light" d="M582.277 207.060c0-7.986-3.174-15.645-8.822-21.299-5.647-5.647-13.313-8.822-21.299-8.822-18.639 0-36.514 7.408-49.691 20.585-13.179 13.178-20.583 31.052-20.583 49.691v200.783c0 2.663-1.058 5.215-2.94 7.099s-4.436 2.94-7.099 2.94c-7.987 0-15.647 3.174-21.296 8.821s-8.822 13.309-8.822 21.297c0 7.987 3.174 15.649 8.822 21.297s13.308 8.821 21.296 8.821c18.638 0 36.512-7.404 49.691-20.583s20.585-31.054 20.585-49.691v-200.783c0-2.66 1.054-5.217 2.936-7.1s4.44-2.936 7.1-2.936c7.986 0 15.651-3.174 21.299-8.822 5.647-5.655 8.822-13.313 8.822-21.299zM491.921 618.666c9.927 0 19.633 2.944 27.885 8.459 8.256 5.517 14.694 13.355 18.491 22.528s4.794 19.265 2.852 29.002c-1.934 9.737-6.714 18.682-13.737 25.702-7.016 7.020-15.962 11.8-25.699 13.737s-19.83 0.942-29.002-2.856c-9.172-3.799-17.011-10.232-22.527-18.487s-8.461-17.959-8.461-27.888c0-13.313 5.288-26.081 14.702-35.493s22.18-14.702 35.493-14.702zM1024 448c0-101.265-30.031-200.25-86.289-284.451s-136.224-149.82-229.78-188.576c-93.555-38.75-196.5-48.888-295.818-29.131-99.317 19.751-190.547 68.517-262.152 140.118-71.604 71.607-120.367 162.837-140.123 262.155s-9.616 202.262 29.136 295.817c38.751 93.555 104.376 173.518 188.573 229.778s183.187 86.288 284.451 86.288c135.742-0.159 265.876-54.153 361.859-150.137s149.98-226.12 150.141-361.861zM963.765 448c0 89.35-26.497 176.694-76.137 250.985s-120.2 132.196-202.75 166.389c-82.543 34.193-173.38 43.14-261.013 25.708s-168.13-60.458-231.31-123.639c-63.18-63.179-106.207-143.676-123.637-231.31s-8.484-178.471 25.708-261.013c34.192-82.55 92.097-153.11 166.388-202.75s161.636-76.131 250.985-76.131c119.776 0.128 234.605 47.77 319.301 132.459 84.689 84.695 132.331 199.523 132.466 319.301z" />
<glyph unicode="&#xe943;" glyph-name="edit-pencil" d="M0.001 149.376v-213.304h213.304l629.101 629.103-213.304 213.304-629.101-629.103zM166.092 49.836h-52.33v52.326l515.341 515.343 52.333-52.33-515.342-515.339zM1007.363 810.331l-133.102 133.102c-11.379 11.376-25.597 16.495-40.387 16.495s-29.010-5.687-39.815-16.495l-104.092-104.092 213.304-213.304 104.092 104.092c22.184 22.184 22.184 58.019 0 80.202z" />
<glyph unicode="&#xe944;" glyph-name="file-accept" d="M173.022 911.239h487.619c67.326 0 121.905-54.578 121.905-121.905v-609.523h-316.952c-41.448 0-69.943-33.383-78.408-66.633-18.797-73.835-85.755-128.415-165.402-128.415-94.257 0-170.666 76.41-170.666 170.666v633.905c0 67.326 54.578 121.905 121.905 121.905zM831.307 179.81v609.523c0 94.257-76.41 170.666-170.666 170.666h-487.619c-94.257 0-170.666-76.41-170.666-170.666v-633.905c0-121.187 98.241-219.429 219.429-219.429h585.143c102.478 0 188.494 70.227 212.656 165.146 11.654 45.773-28.238 78.663-66.37 78.663h-121.905zM359.713-15.237c36.199 29.296 62.887 69.875 74.726 116.385 4.823 18.944 18.739 29.901 31.154 29.901h487.619c6.899 0 12.683-2.872 16.072-6.529 3.082-3.33 4.135-7.056 3.042-11.342-18.793-73.835-85.753-128.415-165.4-128.415h-447.214zM579.175 661.398c10.133-8.867 11.157-24.27 2.291-34.403l-139.942-159.931c-25.776-29.462-70.174-33.402-100.738-8.953l-85.471 68.378c-10.514 8.411-12.219 23.753-3.807 34.267s23.754 12.219 34.269 3.807l85.471-68.375c10.189-8.153 24.987-6.837 33.579 2.984l139.942 159.931c8.87 10.134 24.269 11.161 34.407 2.294z" />
<glyph unicode="&#xe945;" glyph-name="user-add" d="M149.495 260.862c-65.406-32.703-95.602-72.898-95.602-109.282s30.195-76.579 95.602-109.282c63.795-31.895 153.813-52.402 254.715-52.402s190.917 20.507 254.713 52.402c65.406 32.703 95.604 72.898 95.604 109.282s-30.197 76.579-95.604 109.282c-63.796 31.895-153.81 52.402-254.713 52.402s-190.92-20.507-254.715-52.402zM125.393 309.065c72.748 36.374 171.362 58.093 278.817 58.093s206.067-21.72 278.82-58.093c71.136-35.571 125.391-89.692 125.391-157.486s-54.257-121.915-125.391-157.486c-72.753-36.374-171.364-58.093-278.82-58.093s-206.069 21.72-278.817 58.093c-71.136 35.571-125.394 89.692-125.394 157.486s54.258 121.915 125.394 157.486zM404.21 906.107c-104.179 0-188.632-84.454-188.632-188.632s84.454-188.632 188.632-188.632c104.179 0 188.632 84.454 188.632 188.632s-84.454 188.632-188.632 188.632zM161.684 717.474c0 133.944 108.583 242.527 242.527 242.527s242.527-108.583 242.527-242.527c0-133.944-108.583-242.527-242.527-242.527s-242.527 108.583-242.527 242.527zM754.526 501.895c0 14.88 12.067 26.947 26.947 26.947h215.58c14.88 0 26.947-12.067 26.947-26.947s-12.067-26.947-26.947-26.947h-215.58c-14.88 0-26.947 12.067-26.947 26.947zM889.264 367.158c-14.88 0-26.947 12.067-26.947 26.947v215.58c0 14.883 12.067 26.947 26.947 26.947s26.947-12.064 26.947-26.947v-215.58c0-14.88-12.067-26.947-26.947-26.947z" />
<glyph unicode="&#xe946;" glyph-name="email-2" d="M52.027 841.097c33.313 33.313 78.494 52.028 125.605 52.028h668.732c47.112 0 92.296-18.715 125.605-52.029 33.318-33.312 52.031-78.494 52.031-125.603v-534.987c0-47.112-18.713-92.296-52.031-125.605-33.309-33.314-78.494-52.027-125.605-52.027h-668.732c-47.112 0-92.292 18.718-125.603 52.027-33.314 33.309-52.029 78.494-52.029 125.605v534.987c0 47.112 18.715 92.292 52.028 125.604zM177.632 805.354c-23.833 0-46.689-9.467-63.541-26.32s-26.32-39.708-26.32-63.541v-534.987c0-23.834 9.468-46.69 26.319-63.542 16.853-16.852 39.71-26.318 63.543-26.318h668.732c23.834 0 46.69 9.466 63.542 26.318l0.005 0.005c16.852 16.848 26.318 39.704 26.318 63.538v534.987c0 23.832-9.466 46.687-26.323 63.539v0.003c-16.852 16.851-39.707 26.319-63.542 26.319h-668.732zM139.968 671.204c12.469 20.783 39.426 27.523 60.21 15.054l311.79-187.071 311.785 187.071c20.784 12.47 47.739 5.731 60.211-15.053 12.468-20.783 5.732-47.741-15.053-60.211l-334.365-200.619c-13.899-8.339-31.259-8.339-45.158 0l-334.369 200.618c-20.783 12.47-27.523 39.427-15.053 60.211z" />
<glyph unicode="&#xe947;" glyph-name="download-file" d="M273.86 888.558c-85.488 0-154.791-69.302-154.791-154.791v-571.535c0-85.489 69.302-154.791 154.791-154.791h206.854c14.749 0 29.278 2.105 43.192 6.147v148.644c0 124.944 101.288 226.232 226.232 226.232h148.644c4.042 13.914 6.147 28.443 6.147 43.192v302.11c0 85.488-69.302 154.791-154.791 154.791h-476.279zM854.412 317.024h-104.273c-85.489 0-154.791-69.302-154.791-154.791v-104.273l259.064 259.064zM47.627 733.768c0 124.945 101.287 226.232 226.232 226.232h476.279c124.944 0 226.232-101.287 226.232-226.232v-302.11c0-60.001-23.836-117.546-66.264-159.973l-269.421-269.421c-42.427-42.427-99.971-66.264-159.973-66.264h-206.854c-124.945 0-226.232 101.288-226.232 226.232v571.535zM512 769.488c19.727 0 35.721-15.993 35.721-35.721v-198.694c2.222 1.673 4.353 3.518 6.376 5.541l75.529 75.529c13.949 13.949 36.568 13.949 50.517 0s13.949-36.568 0-50.517l-75.529-75.529c-51.15-51.15-134.079-51.15-185.228 0l-75.529 75.529c-13.95 13.949-13.95 36.568 0 50.517 13.948 13.949 36.568 13.949 50.517 0l75.529-75.529c2.022-2.022 4.153-3.867 6.376-5.541v198.694c0 19.728 15.993 35.721 35.721 35.721z" />
<glyph unicode="&#xe948;" glyph-name="uni-address" d="M234.412 824.288c0 34.069 27.618 61.686 61.686 61.686h592.192c34.071 0 61.686-27.618 61.686-61.686v-296.096c0-34.069-27.616-61.686-61.686-61.686h-49.349c-20.44 0-37.012-16.571-37.012-37.012s16.571-37.012 37.012-37.012h49.349c74.952 0 135.71 60.759 135.71 135.71v296.096c0 74.951-60.759 135.71-135.71 135.71h-592.192c-74.951 0-135.71-60.76-135.71-135.71v-74.024c0-20.441 16.571-37.012 37.012-37.012s37.012 16.571 37.012 37.012v74.024zM246.75 528.193c0-54.511-44.189-98.699-98.699-98.699s-98.699 44.187-98.699 98.699c0 54.51 44.189 98.699 98.699 98.699s98.699-44.189 98.699-98.699zM771.376 557.523c11.055 17.195 6.075 40.094-11.118 51.148s-40.096 6.075-51.151-11.119l-192.003-298.671c-19.69 6.509-42.060 4.471-60.976-7.565l-160.031-83.894v24.675c0 81.767-66.284 148.048-148.048 148.048s-148.048-66.281-148.048-148.048v-296.096h296.096v114.491c12.999 1.939 25.831 6.524 37.716 13.951l198.732 105.701c23.811 14.879 35.896 41.498 33.341 67.727l205.491 319.652zM357.785 725.589c0 20.441 16.571 37.012 37.012 37.012h394.794c20.44 0 37.012-16.571 37.012-37.012s-16.571-37.012-37.012-37.012h-394.794c-20.441 0-37.012 16.571-37.012 37.012zM394.797 614.554c-20.441 0-37.012-16.571-37.012-37.012s16.571-37.012 37.012-37.012h197.398c20.44 0 37.012 16.571 37.012 37.012s-16.571 37.012-37.012 37.012h-197.398z" />
<glyph unicode="&#xe949;" glyph-name="department" d="M351.615 774.94v-49.349h320.771v49.349c0 61.323-49.715 111.036-111.036 111.036h-98.699c-61.323 0-111.036-49.713-111.036-111.036zM277.591 725.591v49.349c0 102.206 82.854 185.060 185.060 185.060h98.699c102.208 0 185.060-82.854 185.060-185.060v-49.349h61.686c109.018 0 197.398-88.378 197.398-197.398v-111.036h-401.97c-14.642 36.173-50.104 61.686-91.524 61.686s-76.883-25.514-91.525-61.686h-401.969v111.036c0 109.020 88.378 197.398 197.398 197.398h61.686zM603.524 343.133h401.97v-209.735c0-109.018-88.38-197.398-197.398-197.398h-592.193c-109.020 0-197.398 88.38-197.398 197.398v209.735h401.969c14.641-36.173 50.103-61.686 91.525-61.686 41.419 0 76.881 25.514 91.524 61.686z" />
<glyph unicode="&#xe94a;" glyph-name="student-follower" d="M407.234 833.266c-97.307 0-168.978-70.36-168.978-148.7s71.671-148.699 168.978-148.699c97.302 0 168.974 70.359 168.974 148.699s-71.672 148.7-168.974 148.7zM157.148 684.567c0 130.705 115.949 229.809 250.088 229.809 134.134 0 250.083-99.104 250.083-229.809s-115.949-229.807-250.083-229.807c-134.138 0-250.088 99.103-250.088 229.807zM878.68 630.494c22.398 0 40.555-18.157 40.555-40.555v-54.073h64.21c22.398 0 40.555-18.155 40.555-40.553s-18.156-40.555-40.555-40.555h-64.21v-54.076c0-22.398-18.156-40.555-40.555-40.555s-40.555 18.156-40.555 40.555v54.076h-64.214c-22.398 0-40.555 18.156-40.555 40.555s18.156 40.553 40.555 40.553h64.214v54.073c0 22.397 18.156 40.555 40.555 40.555zM164.643 267.909c-63.752-28.79-83.535-60.227-83.535-80.135 0-19.904 19.785-51.342 83.535-80.132 59.996-27.099 145.728-44.91 242.591-44.91 96.86 0 182.592 17.811 242.588 44.91 63.752 28.79 83.534 60.227 83.534 80.132 0 19.908-19.783 51.346-83.534 80.135-59.996 27.095-145.728 44.91-242.588 44.91-96.863 0-182.595-17.815-242.591-44.91zM131.26 341.832c72.715 32.837 170.323 52.097 275.974 52.097 105.649 0 203.259-19.259 275.973-52.097 68.958-31.146 131.259-82.508 131.259-154.058s-62.3-122.909-131.259-154.054c-72.714-32.837-170.325-52.097-275.973-52.097-105.651 0-203.26 19.259-275.974 52.097-68.961 31.146-131.261 82.504-131.261 154.054s62.3 122.912 131.261 154.058z" />
<glyph unicode="&#xe94b;" glyph-name="bookmark" d="M804.067 959.999h-584.128c-64.254 0-116.826-51.2-116.826-113.778v-910.222l408.888 170.664 408.887-170.664v910.222c0 62.578-52.571 113.778-116.822 113.778zM804.067 106.664l-292.064 124.021-292.063-124.021v739.557h584.128v-739.557z" />
<glyph unicode="&#xe94c;" glyph-name="bookmark-fill" d="M113.777-64v910.222c0 31.289 11.15 58.083 33.451 80.384s49.076 33.432 80.327 33.394h568.889c31.289 0 58.084-11.15 80.384-33.451s33.434-49.076 33.394-80.327v-910.222l-398.222 170.667-398.222-170.667z" />
<glyph unicode="&#xe94d;" glyph-name="user-add-success" d="M388.267 503.467c122.532 0 221.865 99.333 221.865 221.866s-99.333 221.867-221.865 221.867c-122.534 0-221.867-99.333-221.867-221.867 0-122.532 99.333-221.866 221.867-221.866zM388.267-51.201c214.434 0 388.264 99.333 388.264 221.867 0 122.532-173.832 221.865-388.264 221.865-214.435 0-388.267-99.333-388.267-221.865 0-122.534 173.833-221.867 388.267-221.867zM1015.257 689.13c10.639-9.308 11.719-25.483 2.409-36.122l-159.183-181.926c-28.569-32.648-77.776-37.020-111.652-9.92l-97.224 77.781c-11.041 8.832-12.831 24.942-3.998 35.98 8.832 11.041 24.942 12.831 35.983 3.998l97.224-77.778c12.48-9.984 30.61-8.373 41.134 3.653l159.183 181.926c9.31 10.639 25.485 11.718 36.124 2.406z" />
<glyph unicode="&#xe94e;" glyph-name="setting-2" d="M351.521 101.574c-11.038 4.245-21.44 9.338-31.204 15.283s-19.316 12.311-28.656 19.105l-151.562-63.683-140.1 241.992 131.184 99.343c-0.849 5.941-1.273 11.672-1.273 17.194v34.388c0 5.518 0.424 11.248 1.273 17.194l-131.184 99.342 140.1 241.989 151.562-63.682c9.34 6.792 19.105 13.161 29.294 19.105s20.378 11.038 30.567 15.283l20.378 163.025h280.201l20.377-163.025c11.039-4.245 21.439-9.34 31.205-15.283 9.762-5.943 19.315-12.311 28.656-19.105l151.56 63.682 140.101-241.989-131.183-99.342c0.848-5.945 1.272-11.676 1.272-17.194v-34.388c0-5.521-0.848-11.252-2.549-17.194l131.187-99.343-140.101-241.992-150.287 63.683c-9.342-6.793-19.105-13.159-29.295-19.105s-20.377-11.039-30.567-15.283l-20.377-163.027h-280.201l-20.378 163.027zM156.31 120.537l140.405 58.995 17.418-12.67c8.504-6.182 17.186-11.971 26.050-17.366 7.742-4.711 16.078-8.807 25.054-12.261l21.359-8.215 19.032-152.263h212.74l18.944 151.56 20.469 8.528c8.517 3.549 17.19 7.871 26.009 13.017 9.105 5.311 17.794 10.977 26.074 16.999l17.48 12.712 139.118-58.949 106.278 183.568-125.127 94.758 7.187 25.16c0.837 2.935 1.078 5.124 1.078 6.698v34.388c0 3.561-0.275 7.481-0.891 11.787l-3.183 22.28 122.207 92.546-106.328 183.656-140.403-58.993-17.419 12.668c-8.505 6.185-17.186 11.973-26.051 17.368-7.741 4.713-16.078 8.807-25.054 12.26l-21.359 8.215-19.032 152.263h-212.74l-18.944-151.558-20.468-8.528c-8.519-3.549-17.189-7.872-26.011-13.018-9.104-5.31-17.792-10.979-26.072-17.001l-17.418-12.668-140.405 58.993-106.328-183.656 122.207-92.546-3.183-22.28c-0.616-4.306-0.89-8.226-0.89-11.787v-34.388c0-3.561 0.274-7.485 0.89-11.791l3.183-22.28-122.207-92.546 106.328-183.655zM427.243 2.231l-17.638 143.811c-20.198 6.927-39.428 15.704-57.635 26.353-18.081 10.576-35.017 22.918-50.803 36.979l-134.047-56.866-83.28 145.206 115.795 87.517c-1.293 6.056-2.348 12.135-3.161 18.241-1.933 14.5-2.882 29.352-2.882 44.533 0 15.918 0.936 31.205 2.882 45.805 0.804 6.034 1.845 12.043 3.117 18.031l-115.876 86.234 83.261 145.173 134.507-55.705c15.731 13.554 32.566 25.587 50.489 36.069 18.28 10.692 37.59 19.495 57.88 26.436l18.983 143.728h167.921l17.638-143.81c20.198-6.927 39.428-15.702 57.634-26.352 18.081-10.575 35.018-22.92 50.806-36.979l134.045 56.868 83.28-145.207-115.64-87.404c1.242-5.877 2.251-11.837 3.026-17.878 1.914-14.818 2.862-29.826 2.862-45.006 0-15.184-0.948-30.189-2.862-45.010-0.776-6.041-1.784-12.002-3.026-17.878l115.64-87.403-83.135-144.954-134.507 55.705c-15.731-13.552-32.565-25.589-50.489-36.069-18.279-10.694-37.59-19.494-57.879-26.437l-18.983-143.727h-167.921zM579.502 175.443c26.322 6.793 50.73 16.77 73.231 29.933 22.502 13.159 43.092 29.080 61.773 47.761l126.090-52.22 49.672 86.609-109.533 82.783c4.245 11.887 7.217 24.412 8.918 37.574 1.697 13.159 2.545 26.533 2.545 40.119 0 13.584-0.848 26.957-2.545 40.119-1.701 13.159-4.673 25.684-8.918 37.571l109.533 82.786-49.672 86.607-126.090-53.492c-18.68 19.529-39.271 35.874-61.773 49.035s-46.909 23.137-73.231 29.931l-16.56 135.005h-100.615l-17.832-135.005c-26.322-6.792-50.73-16.769-73.232-29.931-22.501-13.161-43.091-29.081-61.772-47.761l-126.090 52.219-49.672-86.607 109.532-81.514c-4.245-12.735-7.217-25.47-8.916-38.209-1.698-12.735-2.547-26.322-2.547-40.754 0-13.587 0.849-26.746 2.547-39.485 1.699-12.735 4.671-25.47 8.916-38.209l-109.532-82.783 49.672-86.609 126.090 53.492c18.68-19.529 39.271-35.875 61.772-49.033 22.503-13.162 46.91-23.139 73.232-29.933l16.56-135.004h100.615l17.832 135.004zM514.547 307.902c39.115 0 71.428 13.384 99.072 41.029s41.025 59.954 41.025 99.072c0 39.115-13.381 71.424-41.025 99.072-27.644 27.644-59.957 41.026-99.072 41.026-40.153 0-72.524-13.508-99.545-40.862-27.274-27.61-40.555-59.969-40.555-99.236s13.281-71.631 40.555-99.24c27.021-27.354 59.392-40.861 99.545-40.861zM640.637 321.914c-34.812-34.812-76.842-52.22-126.090-52.22-50.096 0-92.34 17.408-126.728 52.22s-51.582 76.842-51.582 126.090c0 49.248 17.194 91.277 51.582 126.090s76.632 52.218 126.728 52.218c49.248 0 91.277-17.406 126.090-52.218s52.217-76.842 52.217-126.090c0-49.248-17.404-91.277-52.217-126.090z" />
</font>
</defs>
</svg>
